Планета собак спешит на помощь (01-11 серии из ?) (Алексей Грицаенко) [2016, документальный, TVRip]

 
 Статистика раздачи 
Размер: 5.5 ГБ   |  Зарегистрирован: 13 ноя 2016, 19:55   |   .torrent скачан: 1 раз
Сидеров: 1  [ 0 байт/сек ]     Личеров: 0  [ 0 байт/сек ]  
  

Планета собак спешит на помощь (01-11 серии из ?) (Алексей Грицаенко) [2016, документальный, TVRip]

Сообщение aLaVodka » 13 ноя 2016, 19:55

Планета собак спешит на помощь (01-11 серии из ?)

Дата/Год выпуска: 2016
Страна: Россия
Жанр: документальный
Продолжительность: 11 х ~ 00:42:30
Перевод: Не требуется
Русские субтитры: нет

Режиссер: Алексей Грицаенко
Ведущий: Григорий Манев

Телеканал: Моя планета, Живая планета
Описание: Григорий Манев и «Планета собак» спешат на помощь к тем, чьи собаки вырвались из под контроля, растолстели из-за неправильного питания, считают себя вожаком стаи.
Основная часть программы «Планета собак спешит на помощь» будет наполнена практическими советами обладателям четвероногих друзей на разные случаи жизни. Каждый выпуск — это история реального человека и его собаки, при воспитании которой у хозяев возникают трудности. Для того, чтобы помочь владельцу питомца, ведущий отправится на родину данной породы, найдёт специалистов и подробно расспросит их о том, как решить проблему "героя" передачи.

Доп. информация: возрастное ограничение: от 6 лет

Сэмпл: http://multi-up.com/1109350

качество: TVRip (1-4,6 серии), SATRip (5,7-11 серии)
формат: AVI
Видео серии 01-06: XviD, 720х432 пикс, ~ 1500 Кбит/сек, 25,0 кадров/сек, 0.193 Бит/(Пиксели*Кадры)
Видео серия 07-11: XviD, 720х400 пикс, ~ 1500 Кбит/сек, 25,0 кадров/сек, 0.207 Бит/(Пиксели*Кадры)
Аудио: MP3, 160 Кбит/сек Постоянный, 48,0 КГц, 2 канала

30.10.2016. добавил 10-ю серию
01.Бордер колли
В этой программе, ведущий помогает решить проблему крайне активной и сообразительной собаки породы бордер-колли, которая от скуки устраивает погромы в квартире хозяйки. Для того, чтобы придумать псу менее затратное развлечение, ведущий отправляется в Англию - чтобы узнать как занимают ум и интеллект этих псов на родине породы.

02.Золотистый ретривер
Хозяйка золотистого ретривера Настя не может нарадоваться на свою собаку по кличке Варя: такая она у нее умная, добрая и сообразительная. К сожалению, у этого пса есть недостаток - как и все золотистые ретриверы она обожает поесть, а иногда даже не стесняясь ворует куски со стола - как результат собака набрала изрядное количество лишних килограммов. Ведущий должен помочь этой собаке похудеть и найти подходящее занятие, которое помогло бы отвлечься от мыслей о пище. За этими знаниями он отправляется на родину породы - в Англию

03.Вельш-корги
Вельш-корги - это порода самых маленьких пастушьих овчарок в мире. Несмотря на свою очаровательную внешность и миниатюрные размеры, собака нашей героини обладает железным характером и привыкла считать себя в семье главной. Для того, чтобы отучить песика от этой скверной привычки ведущий отправляется на родину породы - в Англию, место где заводчики знаю о методах дрессировки вельш-коргов абсолютно всё.

04.Йоркширский терьер
Героиня программы, Ирина, давно мечтала о собачке породы йоркширский терьер. Он маленький, веселый, не требует долгих прогулок и не линяет, рассуждала героиня. Но когда судьба преподнесла ей маленького щенка йорка, которого назвали Вэй, оказалось, что за хорошенькой мордашкой скрывается бурный темперамент. Когда дело доходит до мытья или расчесывания, милый песик превращается в рычащий комочек, наотрез отказывающийся от процедур. Чтобы помочь Ирине и её йоркширскому терьеру, ведущий программы «Планета собак спешит на помощь» Григорий Манев, отправился на родину породу, в Англию, где совместно с экспертами, найдет решение проблемы.

05.Английский бульдог
Елена всю жизнь привыкла выкладываться на работе по полной. Когда вы заняты в режиме двадцать четыре на семь - питомец это уже чересчур. Но, как оказалось, не для нашей героини! Когда она прочитала в интернете о том, что английские бульдоги - это собаки которые равнодушно относятся к спорту, играм и долгим прогулкам, она ни думая ни минуты приобрела себе щенка такой породы. Однако, как оказалось, для счастья любимого питомца дивана и миски с кормом недостаточно. Как наладить жизнь у пса, который считает себя несчастным?

06. Скотч-терьер
В этот раз Григорий Манев помогает в дрессировке скотч-терьера

07. Москва собачья
Григорий Манев и "Планета собак" новый сезон - снова спешат на помощь!
На этот раз, ведущий программы помогает очаровательной иностранке влюбленной в нашу столицу найти себе идеального питомца. Главная сложность заключается в том, что героиня хочет себе пса именно московской породы - к которым относятся и огромные чёрные терьеры и миниатюрные русские тои... На какой же собаке остановит свой выбор наша героиня?

08 Планета собак спешит на помощь. Мастино неаполитано
Большие собаки - это прежде всего большая ответственность. Габариты неаполитанского мастифа наших героев огромны, однако этот пес в семье подчиняется только одному человеку - хозяину. Увы, этот человек очень занят на работе и у него не всегда есть время для своего питомца. Возможно ли перевоспитать упрямую и взрослую собаку? Как научить животное видеть лидера в каждом из членов семьи? Григорий Манев и программа “Планета собак” вам обязательно об этом расскажут!

09 Планета собак спешит на помощь. Лаготто романьоло
Герой нашей программы невероятно рассеянный человек - он легко теряет и ключи, и очки и телефоны. Однако парню повезло - его пес породы лаготто романьоло прирожденная ищейка. Его можно натренировать на поиск абсолютно любых предметов. Но как это сделать правильно? Григорий Манев и программа “Планета собак” выясняют секреты воспитания лаготто на родине этой породы - в Италии.

10 Планета собак спешит на помощь. Бергамская овчарка
Мария завела себе питомца очень редкой породы - бергамская овчарка. В России таких собак больше нет.
И здесь мы подходим к главной проблеме: не всегда понятно какая черта его характера это генетическая особенность, а какая - личные причуды. Здесь нужна консультация опытных специалистов по бергамаскам!
А поскольку в нашей стране таких не найти, - за необходимыми сведениями “Планета собак” отправляется на родину породы - в Италию.

11 Русская псовая борзая
Приобретя русскую псовую борзую героиня- Татьяна, столкнулась с проблемой! Шон, так зовут ее питомца, очень агрессивно настроен к городским животным, особенно к тем кто меньше его. Это и понятно, ведь порода веками выводилась для охоты. Но "Планета собак" решала и не такие вопросы! А ещё из программы Вы узнаете о сложном историческом пути этих собак, увидите, как и где можно проводить время с современными русскими псовыми так, чтобы и хозяин, и его питомец получали удовольствие и массу положительных эмоций. В последнем эпизоде очень красочно показана реконструкция открытия сезона псовой охоты!
Код: Выделить всё
Общее
Полное имя                               : C:\фильмы\02 возможно для раздачи\Планета собак спешит на помощь\Планета собак спешит на помощь (2016г)\01 Бордер-колли.avi
Формат                                   : AVI
Формат/Информация                        : Audio Video Interleave
Размер файла                             : 502 Мбайт
Продолжительность                        : 42 м.
Общий поток                              : 1664 Кбит/сек

Видео
Идентификатор                            : 0
Формат                                   : MPEG-4 Visual
Профиль формата                          : Advanced Simple@L4
Параметр BVOP формата                    : Нет
Параметр QPel формата                    : Нет
Параметр GMC формата                     : Без точки перехода
Параметр матрицы формата                 : Default (H.263)
Идентификатор кодека                     : XVID
Идентификатор кодека/Подсказка           : XviD
Продолжительность                        : 42 м.
Битрейт                                  : 1494 Кбит/сек
Ширина                                   : 720 пикселей
Высота                                   : 432 пикселя
Соотношение сторон                       : 1,667
Частота кадров                           : 25,000 кадров/сек
Цветовое пространство                    : YUV
Субдискретизация насыщенности            : 4:2:0
Битовая глубина                          : 8 бит
Тип развёртки                            : Прогрессивная
Метод сжатия                             : С потерями
Бит/(Пиксели*Кадры)                      : 0.192
Размер потока                            : 450 Мбайт (90%)
Библиотека кодирования                   : Lavc53.42.0

Аудио
Идентификатор                            : 1
Формат                                   : MPEG Audio
Версия формата                           : Version 1
Профиль формата                          : Layer 3
Идентификатор кодека                     : 55
Идентификатор кодека/Подсказка           : MP3
Продолжительность                        : 42 м.
Продолжительность оригинала              : 42 м.
Вид битрейта                             : Постоянный
Битрейт                                  : 160 Кбит/сек
Каналы                                   : 2 канала
Частота                                  : 48,0 КГц
Метод сжатия                             : С потерями
Размер потока                            : 48,2 Мбайт (10%)
Выравнивание                             : Соединение по промежуткам
Продолжительность промежутка             : 40  мс. (1,00 видеокадр)
Библиотека кодирования                   : LAME

Общее
Полное имя                               : C:\фильмы\02 возможно для раздачи\Планета собак спешит на помощь\Планета собак спешит на помощь (2016г)\02 Золотистый ретривер.avi
Формат                                   : AVI
Формат/Информация                        : Audio Video Interleave
Размер файла                             : 511 Мбайт
Продолжительность                        : 42 м.
Общий поток                              : 1669 Кбит/сек

Видео
Идентификатор                            : 0
Формат                                   : MPEG-4 Visual
Профиль формата                          : Advanced Simple@L4
Параметр BVOP формата                    : Нет
Параметр QPel формата                    : Нет
Параметр GMC формата                     : Без точки перехода
Параметр матрицы формата                 : Default (H.263)
Идентификатор кодека                     : XVID
Идентификатор кодека/Подсказка           : XviD
Продолжительность                        : 42 м.
Битрейт                                  : 1500 Кбит/сек
Ширина                                   : 720 пикселей
Высота                                   : 432 пикселя
Соотношение сторон                       : 1,667
Частота кадров                           : 25,000 кадров/сек
Цветовое пространство                    : YUV
Субдискретизация насыщенности            : 4:2:0
Битовая глубина                          : 8 бит
Тип развёртки                            : Прогрессивная
Метод сжатия                             : С потерями
Бит/(Пиксели*Кадры)                      : 0.193
Размер потока                            : 459 Мбайт (90%)

Аудио
Идентификатор                            : 1
Формат                                   : MPEG Audio
Версия формата                           : Version 1
Профиль формата                          : Layer 3
Идентификатор кодека                     : 55
Идентификатор кодека/Подсказка           : MP3
Продолжительность                        : 42 м.
Продолжительность оригинала              : 42 м.
Вид битрейта                             : Постоянный
Битрейт                                  : 160 Кбит/сек
Каналы                                   : 2 канала
Частота                                  : 48,0 КГц
Метод сжатия                             : С потерями
Размер потока                            : 49,0 Мбайт (10%)
Выравнивание                             : Соединение по промежуткам
Продолжительность промежутка             : 40  мс. (1,00 видеокадр)

Общее
Полное имя                               : C:\фильмы\02 возможно для раздачи\Планета собак спешит на помощь\Планета собак спешит на помощь (2016г)\03 Вельш-корги.avi
Формат                                   : AVI
Формат/Информация                        : Audio Video Interleave
Размер файла                             : 507 Мбайт
Продолжительность                        : 42 м.
Общий поток                              : 1669 Кбит/сек

Видео
Идентификатор                            : 0
Формат                                   : MPEG-4 Visual
Профиль формата                          : Advanced Simple@L4
Параметр BVOP формата                    : Нет
Параметр QPel формата                    : Нет
Параметр GMC формата                     : Без точки перехода
Параметр матрицы формата                 : Default (H.263)
Идентификатор кодека                     : XVID
Идентификатор кодека/Подсказка           : XviD
Продолжительность                        : 42 м.
Битрейт                                  : 1500 Кбит/сек
Ширина                                   : 720 пикселей
Высота                                   : 432 пикселя
Соотношение сторон                       : 1,667
Частота кадров                           : 25,000 кадров/сек
Цветовое пространство                    : YUV
Субдискретизация насыщенности            : 4:2:0
Битовая глубина                          : 8 бит
Тип развёртки                            : Прогрессивная
Метод сжатия                             : С потерями
Бит/(Пиксели*Кадры)                      : 0.193
Размер потока                            : 456 Мбайт (90%)

Аудио
Идентификатор                            : 1
Формат                                   : MPEG Audio
Версия формата                           : Version 1
Профиль формата                          : Layer 3
Идентификатор кодека                     : 55
Идентификатор кодека/Подсказка           : MP3
Продолжительность                        : 42 м.
Продолжительность оригинала              : 42 м.
Вид битрейта                             : Постоянный
Битрейт                                  : 160 Кбит/сек
Каналы                                   : 2 канала
Частота                                  : 48,0 КГц
Метод сжатия                             : С потерями
Размер потока                            : 48,6 Мбайт (10%)
Выравнивание                             : Соединение по промежуткам
Продолжительность промежутка             : 40  мс. (1,00 видеокадр)

Общее
Полное имя                               : C:\фильмы\02 возможно для раздачи\Планета собак спешит на помощь\Планета собак спешит на помощь (2016г)\04 Йоркширский терьер.avi
Формат                                   : AVI
Формат/Информация                        : Audio Video Interleave
Размер файла                             : 522 Мбайт
Продолжительность                        : 43 м.
Общий поток                              : 1669 Кбит/сек

Видео
Идентификатор                            : 0
Формат                                   : MPEG-4 Visual
Профиль формата                          : Advanced Simple@L4
Параметр BVOP формата                    : Нет
Параметр QPel формата                    : Нет
Параметр GMC формата                     : Без точки перехода
Параметр матрицы формата                 : Default (H.263)
Идентификатор кодека                     : XVID
Идентификатор кодека/Подсказка           : XviD
Продолжительность                        : 43 м.
Битрейт                                  : 1499 Кбит/сек
Ширина                                   : 720 пикселей
Высота                                   : 432 пикселя
Соотношение сторон                       : 1,667
Частота кадров                           : 25,000 кадров/сек
Цветовое пространство                    : YUV
Субдискретизация насыщенности            : 4:2:0
Битовая глубина                          : 8 бит
Тип развёртки                            : Прогрессивная
Метод сжатия                             : С потерями
Бит/(Пиксели*Кадры)                      : 0.193
Размер потока                            : 469 Мбайт (90%)
Библиотека кодирования                   : Lavc53.42.0

Аудио
Идентификатор                            : 1
Формат                                   : MPEG Audio
Версия формата                           : Version 1
Профиль формата                          : Layer 3
Идентификатор кодека                     : 55
Идентификатор кодека/Подсказка           : MP3
Продолжительность                        : 43 м.
Продолжительность оригинала              : 43 м.
Вид битрейта                             : Постоянный
Битрейт                                  : 160 Кбит/сек
Каналы                                   : 2 канала
Частота                                  : 48,0 КГц
Метод сжатия                             : С потерями
Размер потока                            : 50,1 Мбайт (10%)
Выравнивание                             : Соединение по промежуткам
Продолжительность промежутка             : 40  мс. (1,00 видеокадр)

Общее
Полное имя                               : C:\фильмы\02 возможно для раздачи\Планета собак спешит на помощь\Планета собак спешит на помощь (2016г)\05 английский бульдог.avi
Формат                                   : AVI
Формат/Информация                        : Audio Video Interleave
Размер файла                             : 505 Мбайт
Продолжительность                        : 42 м.
Общий поток                              : 1670 Кбит/сек

Видео
Идентификатор                            : 0
Формат                                   : MPEG-4 Visual
Профиль формата                          : Advanced Simple@L4
Параметр BVOP формата                    : Нет
Параметр QPel формата                    : Нет
Параметр GMC формата                     : Без точки перехода
Параметр матрицы формата                 : Default (H.263)
Идентификатор кодека                     : XVID
Идентификатор кодека/Подсказка           : XviD
Продолжительность                        : 42 м.
Битрейт                                  : 1501 Кбит/сек
Ширина                                   : 720 пикселей
Высота                                   : 432 пикселя
Соотношение сторон                       : 1,667
Частота кадров                           : 25,000 кадров/сек
Цветовое пространство                    : YUV
Субдискретизация насыщенности            : 4:2:0
Битовая глубина                          : 8 бит
Тип развёртки                            : Прогрессивная
Метод сжатия                             : С потерями
Бит/(Пиксели*Кадры)                      : 0.193
Размер потока                            : 454 Мбайт (90%)

Аудио
Идентификатор                            : 1
Формат                                   : MPEG Audio
Версия формата                           : Version 1
Профиль формата                          : Layer 3
Идентификатор кодека                     : 55
Идентификатор кодека/Подсказка           : MP3
Продолжительность                        : 42 м.
Продолжительность оригинала              : 42 м.
Вид битрейта                             : Постоянный
Битрейт                                  : 160 Кбит/сек
Каналы                                   : 2 канала
Частота                                  : 48,0 КГц
Метод сжатия                             : С потерями
Размер потока                            : 48,4 Мбайт (10%)
Выравнивание                             : Соединение по промежуткам
Продолжительность промежутка             : 40  мс. (1,00 видеокадр)

Общее
Полное имя                               : C:\фильмы\02 возможно для раздачи\Планета собак спешит на помощь\Планета собак спешит на помощь (2016г)\06 Скотч-терьер.avi
Формат                                   : AVI
Формат/Информация                        : Audio Video Interleave
Размер файла                             : 510 Мбайт
Продолжительность                        : 42 м.
Общий поток                              : 1669 Кбит/сек

Видео
Идентификатор                            : 0
Формат                                   : MPEG-4 Visual
Профиль формата                          : Advanced Simple@L4
Параметр BVOP формата                    : Нет
Параметр QPel формата                    : Нет
Параметр GMC формата                     : Без точки перехода
Параметр матрицы формата                 : Default (H.263)
Идентификатор кодека                     : XVID
Идентификатор кодека/Подсказка           : XviD
Продолжительность                        : 42 м.
Битрейт                                  : 1499 Кбит/сек
Ширина                                   : 720 пикселей
Высота                                   : 432 пикселя
Соотношение сторон                       : 1,667
Частота кадров                           : 25,000 кадров/сек
Цветовое пространство                    : YUV
Субдискретизация насыщенности            : 4:2:0
Битовая глубина                          : 8 бит
Тип развёртки                            : Прогрессивная
Метод сжатия                             : С потерями
Бит/(Пиксели*Кадры)                      : 0.193
Размер потока                            : 458 Мбайт (90%)

Аудио
Идентификатор                            : 1
Формат                                   : MPEG Audio
Версия формата                           : Version 1
Профиль формата                          : Layer 3
Идентификатор кодека                     : 55
Идентификатор кодека/Подсказка           : MP3
Продолжительность                        : 42 м.
Продолжительность оригинала              : 42 м.
Вид битрейта                             : Постоянный
Битрейт                                  : 160 Кбит/сек
Каналы                                   : 2 канала
Частота                                  : 48,0 КГц
Метод сжатия                             : С потерями
Размер потока                            : 48,9 Мбайт (10%)
Выравнивание                             : Соединение по промежуткам
Продолжительность промежутка             : 40  мс. (1,00 видеокадр)

Общее
Полное имя                               : C:\фильмы\02 возможно для раздачи\Планета собак спешит на помощь\Планета собак спешит на помощь (2016г)\07 Москва собачья.avi
Формат                                   : AVI
Формат/Информация                        : Audio Video Interleave
Размер файла                             : 527 Мбайт
Продолжительность                        : 44 м.
Общий поток                              : 1662 Кбит/сек

Видео
Идентификатор                            : 0
Формат                                   : MPEG-4 Visual
Профиль формата                          : Advanced Simple@L4
Параметр BVOP формата                    : Нет
Параметр QPel формата                    : Нет
Параметр GMC формата                     : Без точки перехода
Параметр матрицы формата                 : Default (H.263)
Идентификатор кодека                     : XVID
Идентификатор кодека/Подсказка           : XviD
Продолжительность                        : 44 м.
Битрейт                                  : 1492 Кбит/сек
Ширина                                   : 720 пикселей
Высота                                   : 400 пикселей
Соотношение сторон                       : 16:9
Частота кадров                           : 25,000 кадров/сек
Цветовое пространство                    : YUV
Субдискретизация насыщенности            : 4:2:0
Битовая глубина                          : 8 бит
Тип развёртки                            : Прогрессивная
Метод сжатия                             : С потерями
Бит/(Пиксели*Кадры)                      : 0.207
Размер потока                            : 473 Мбайт (90%)
Библиотека кодирования                   : Lavc53.42.0

Аудио
Идентификатор                            : 1
Формат                                   : MPEG Audio
Версия формата                           : Version 1
Профиль формата                          : Layer 3
Идентификатор кодека                     : 55
Идентификатор кодека/Подсказка           : MP3
Продолжительность                        : 44 м.
Продолжительность оригинала              : 44 м.
Вид битрейта                             : Постоянный
Битрейт                                  : 160 Кбит/сек
Каналы                                   : 2 канала
Частота                                  : 48,0 КГц
Метод сжатия                             : С потерями
Размер потока                            : 50,7 Мбайт (10%)
Выравнивание                             : Соединение по промежуткам
Продолжительность промежутка             : 40  мс. (1,00 видеокадр)

Общее
Полное имя                               : C:\фильмы\02 возможно для раздачи\Планета собак спешит на помощь\Планета собак спешит на помощь (2016г)\08 Мастино неополитано.avi
Формат                                   : AVI
Формат/Информация                        : Audio Video Interleave
Размер файла                             : 505 Мбайт
Продолжительность                        : 42 м.
Общий поток                              : 1666 Кбит/сек

Видео
Идентификатор                            : 0
Формат                                   : MPEG-4 Visual
Профиль формата                          : Advanced Simple@L4
Параметр BVOP формата                    : Нет
Параметр QPel формата                    : Нет
Параметр GMC формата                     : Без точки перехода
Параметр матрицы формата                 : Default (H.263)
Идентификатор кодека                     : XVID
Идентификатор кодека/Подсказка           : XviD
Продолжительность                        : 42 м.
Битрейт                                  : 1496 Кбит/сек
Ширина                                   : 720 пикселей
Высота                                   : 400 пикселей
Соотношение сторон                       : 16:9
Частота кадров                           : 25,000 кадров/сек
Цветовое пространство                    : YUV
Субдискретизация насыщенности            : 4:2:0
Битовая глубина                          : 8 бит
Тип развёртки                            : Прогрессивная
Метод сжатия                             : С потерями
Бит/(Пиксели*Кадры)                      : 0.208
Размер потока                            : 454 Мбайт (90%)

Аудио
Идентификатор                            : 1
Формат                                   : MPEG Audio
Версия формата                           : Version 1
Профиль формата                          : Layer 3
Идентификатор кодека                     : 55
Идентификатор кодека/Подсказка           : MP3
Продолжительность                        : 42 м.
Продолжительность оригинала              : 42 м.
Вид битрейта                             : Постоянный
Битрейт                                  : 160 Кбит/сек
Каналы                                   : 2 канала
Частота                                  : 48,0 КГц
Метод сжатия                             : С потерями
Размер потока                            : 48,5 Мбайт (10%)
Выравнивание                             : Соединение по промежуткам
Продолжительность промежутка             : 40  мс. (1,00 видеокадр)

Общее
Полное имя                               : C:\фильмы\02 возможно для раздачи\Планета собак спешит на помощь\Планета собак спешит на помощь (2016г)\09 Лаготто романьоло.avi
Формат                                   : AVI
Формат/Информация                        : Audio Video Interleave
Размер файла                             : 507 Мбайт
Продолжительность                        : 42 м.
Общий поток                              : 1667 Кбит/сек

Видео
Идентификатор                            : 0
Формат                                   : MPEG-4 Visual
Профиль формата                          : Advanced Simple@L4
Параметр BVOP формата                    : Нет
Параметр QPel формата                    : Нет
Параметр GMC формата                     : Без точки перехода
Параметр матрицы формата                 : Default (H.263)
Идентификатор кодека                     : XVID
Идентификатор кодека/Подсказка           : XviD
Продолжительность                        : 42 м.
Битрейт                                  : 1497 Кбит/сек
Ширина                                   : 720 пикселей
Высота                                   : 400 пикселей
Соотношение сторон                       : 16:9
Частота кадров                           : 25,000 кадров/сек
Цветовое пространство                    : YUV
Субдискретизация насыщенности            : 4:2:0
Битовая глубина                          : 8 бит
Тип развёртки                            : Прогрессивная
Метод сжатия                             : С потерями
Бит/(Пиксели*Кадры)                      : 0.208
Размер потока                            : 455 Мбайт (90%)

Аудио
Идентификатор                            : 1
Формат                                   : MPEG Audio
Версия формата                           : Version 1
Профиль формата                          : Layer 3
Идентификатор кодека                     : 55
Идентификатор кодека/Подсказка           : MP3
Продолжительность                        : 42 м.
Продолжительность оригинала              : 42 м.
Вид битрейта                             : Постоянный
Битрейт                                  : 160 Кбит/сек
Каналы                                   : 2 канала
Частота                                  : 48,0 КГц
Метод сжатия                             : С потерями
Размер потока                            : 48,7 Мбайт (10%)
Выравнивание                             : Соединение по промежуткам
Продолжительность промежутка             : 40  мс. (1,00 видеокадр)

Общее
Полное имя                               : C:\фильмы\02 возможно для раздачи\Планета собак спешит на помощь\Планета собак спешит на помощь (2016г)\10 Бергамская овчарка.avi
Формат                                   : AVI
Формат/Информация                        : Audio Video Interleave
Размер файла                             : 522 Мбайт
Продолжительность                        : 43 м.
Общий поток                              : 1667 Кбит/сек

Видео
Идентификатор                            : 0
Формат                                   : MPEG-4 Visual
Профиль формата                          : Advanced Simple@L4
Параметр BVOP формата                    : Нет
Параметр QPel формата                    : Нет
Параметр GMC формата                     : Без точки перехода
Параметр матрицы формата                 : Default (H.263)
Идентификатор кодека                     : XVID
Идентификатор кодека/Подсказка           : XviD
Продолжительность                        : 43 м.
Битрейт                                  : 1498 Кбит/сек
Ширина                                   : 720 пикселей
Высота                                   : 400 пикселей
Соотношение сторон                       : 16:9
Частота кадров                           : 25,000 кадров/сек
Цветовое пространство                    : YUV
Субдискретизация насыщенности            : 4:2:0
Битовая глубина                          : 8 бит
Тип развёртки                            : Прогрессивная
Метод сжатия                             : С потерями
Бит/(Пиксели*Кадры)                      : 0.208
Размер потока                            : 469 Мбайт (90%)

Аудио
Идентификатор                            : 1
Формат                                   : MPEG Audio
Версия формата                           : Version 1
Профиль формата                          : Layer 3
Идентификатор кодека                     : 55
Идентификатор кодека/Подсказка           : MP3
Продолжительность                        : 43 м.
Вид битрейта                             : Постоянный
Битрейт                                  : 160 Кбит/сек
Каналы                                   : 2 канала
Частота                                  : 48,0 КГц
Метод сжатия                             : С потерями
Размер потока                            : 50,1 Мбайт (10%)
Выравнивание                             : Соединение по промежуткам
Продолжительность промежутка             : 40  мс. (1,00 видеокадр)

Общее
Полное имя                               : C:\фильмы\02 возможно для раздачи\Планета собак спешит на помощь\Планета собак спешит на помощь (2016г)\11 Русская псовая борзая.avi
Формат                                   : AVI
Формат/Информация                        : Audio Video Interleave
Размер файла                             : 510 Мбайт
Продолжительность                        : 42 м.
Общий поток                              : 1668 Кбит/сек

Видео
Идентификатор                            : 0
Формат                                   : MPEG-4 Visual
Профиль формата                          : Advanced Simple@L4
Параметр BVOP формата                    : Нет
Параметр QPel формата                    : Нет
Параметр GMC формата                     : Без точки перехода
Параметр матрицы формата                 : Default (H.263)
Идентификатор кодека                     : XVID
Идентификатор кодека/Подсказка           : XviD
Продолжительность                        : 42 м.
Битрейт                                  : 1499 Кбит/сек
Ширина                                   : 720 пикселей
Высота                                   : 400 пикселей
Соотношение сторон                       : 16:9
Частота кадров                           : 25,000 кадров/сек
Цветовое пространство                    : YUV
Субдискретизация насыщенности            : 4:2:0
Битовая глубина                          : 8 бит
Тип развёртки                            : Прогрессивная
Метод сжатия                             : С потерями
Бит/(Пиксели*Кадры)                      : 0.208
Размер потока                            : 458 Мбайт (90%)

Аудио
Идентификатор                            : 1
Формат                                   : MPEG Audio
Версия формата                           : Version 1
Профиль формата                          : Layer 3
Идентификатор кодека                     : 55
Идентификатор кодека/Подсказка           : MP3
Продолжительность                        : 42 м.
Вид битрейта                             : Постоянный
Битрейт                                  : 160 Кбит/сек
Каналы                                   : 2 канала
Частота                                  : 48,0 КГц
Метод сжатия                             : С потерями
Размер потока                            : 48,9 Мбайт (10%)
Выравнивание                             : Соединение по промежуткам
Продолжительность промежутка             : 40  мс. (1,00 видеокадр)
для 1,2 серий



для 7 серии
скриншот со сроками показа


видео (рекламный ролик)
https://www.sendspace.com/file/m5nh52
планета собак за предыдущие годы
телепередача
 
Не забывайте говорить Спасибо. Не уходите с раздачи!   
Торрент: Зарегистрирован [13 ноя 2016, 19:55] Для скачивания .torrent
необходима регистрация
Или скачать с помощью
MediaGet
Статус:
Проверен
 
.torrent скачан: 1 раз
Хэш: f88ac58ff1eb580a5a2f432b0ff2e6dcd1b6c603
Размер: 5.5 ГБ (5 902 237 764 байт)
Стать Автором раздачи
 
 
Раздал: 100 ГБ
Скачал: 0 байт
Ратио: Seed.
Сообщения: 189200
Зарегистрирован: 09 апр 2015, 20:00


  • Похожие торренты
    Ответы
    Просмотры
    Последнее сообщение

Вернуться в Флора и фауна (видео)

Ресурс не предоставляет электронные версии произведений, а занимается лишь коллекционированием и каталогизацией ссылок, присылаемых и публикуемых на форуме нашими читателями. Если вы являетесь правообладателем какого-либо представленного материала и не желаете чтобы ссылка на него находилась в нашем каталоге, свяжитесь с нами и мы незамедлительно удалим её. Файлы для обмена на трекере предоставлены пользователями сайта, и администрация не несёт ответственности за их содержание. Просьба не заливать файлы, защищенные авторскими правами, а также файлы нелегального содержания!
cron