Танцуют все! / Танцюють всі! (2016) WEBRip [H.264] (сезон 9, выпуски 1-11 из ??) [MP4|854x480] [UKR]

 
 Статистика раздачи 
Размер: 13.08 ГБ   |  Зарегистрирован: 12 ноя 2016, 08:41   |   .torrent скачан: 0 раз
Сидеров: 1  [ 0 байт/сек ]     Личеров: 0  [ 0 байт/сек ]  
  

Танцуют все! / Танцюють всі! (2016) WEBRip [H.264] (сезон 9, выпуски 1-11 из ??) [MP4|854x480] [UKR]

Сообщение explosiveone » 12 ноя 2016, 08:41

Танцуют все! / Танцюють всі! (2016) WEBRip (сезон 9, выпуски 1-11 из ??)

Производство: Украина / СТБ
Жанр: Телепередача

Участники: Татьяна Денисова, Влад Яма, Раду Поклитару и др.

Описание:
Шоу «Танцюють всі!» существует в Украине уже на протяжении девяти лет, и за этот период оно приобрело действительно колоссальный масштаб. Благодаря ему украинские телезрители смогли познакомиться с множеством талантливых танцоров, а последние в свою очередь смогли реализовать свою мечту – посвятили жизнь любимому делу.

Продолжительность: ~ 02:43:00 выпуск
Качество видео: WEBRip
Перевод: Отсутствует
Язык: украинский

Видео: AVC/H.264, 854x480, ~898 Kbps
Аудио: AAC, 2 ch, 126 Kbps
Код:
General
Format                         : MPEG-4
Format profile                 : Base Media / Version 2
Codec ID                       : mp42
File size                      : 1.17 GiB
Duration                       : 2h 43mn
Overall bit rate               : 1 029 Kbps
Writing application            : Machete 4.4

Video
ID                             : 1
Format                         : AVC
Format/Info                    : Advanced Video Codec
Format profile                 : Main@L3
Format settings, CABAC         : Yes
Format settings, ReFrames      : 3 frames
Codec ID                       : avc1
Codec ID/Info                  : Advanced Video Coding
Duration                       : 2h 43mn
Source duration                : 2h 43mn
Bit rate                       : 898 Kbps
Width                          : 854 pixels
Height                         : 480 pixels
Display aspect ratio           : 16:9
Frame rate mode                : Variable
Frame rate                     : 25.000 fps
Minimum frame rate             : 10.909 fps
Maximum frame rate             : 600.000 fps
Color space                    : YUV
Chroma subsampling             : 4:2:0
Bit depth                      : 8 bits
Scan type                      : Progressive
Bits/(Pixel*Frame)             : 0.088
Stream size                    : 1.02 GiB (87%)
Source stream size             : 1.02 GiB (87%)
Language                       : English
mdhd_Duration                  : 9782350

Audio
ID                             : 2
Format                         : AAC
Format/Info                    : Advanced Audio Codec
Format profile                 : LC
Codec ID                       : 40
Duration                       : 2h 43mn
Bit rate mode                  : Constant
Bit rate                       : 126 Kbps
Channel(s)                     : 2 channels
Channel positions              : Front: L R
Sampling rate                  : 44.1 KHz
Compression mode               : Lossy
Stream size                    : 146 MiB (12%)
Language                       : English
mdhd_Duration                  : 9782405

Танцуют все! Сезон 9. Выпуск 1. Кастинг в Днепре. Эфир 02.09.2016
Танцуют все! Сезон 9. Выпуск 2. Кастинг в Одессе. Эфир 09.09.2016
Танцуют все! Сезон 9. Выпуск 3. Кастинг в Киеве. Эфир 16.09.2016
Танцуют все! Сезон 9. Выпуск 4. Кастинг в Запорожье. Эфир 23.09.2016
Танцуют все! Сезон 9. Выпуск 5. Кастинг в Черновцах. Эфир 30.09.2016
Танцуют все! Сезон 9. Выпуск 6. Кастинг в Полтаве. Эфир 07.10.2016
Танцуют все! Сезон 9. Выпуск 7. Кастинг в Одессе. Эфир 14.10.2016
Танцуют все! Сезон 9. Выпуск 8. Кастинг в Харькове. Эфир 21.10.2016
Танцуют все! Сезон 9. Выпуск 9. Кастинг во Львове. Эфир 28.10.2016
Танцуют все! Сезон 9. Выпуск 10. Кастинг в Киеве. Эфир 04.11.2016
Танцуют все! Сезон 9. Выпуск 11. Испытание в сотне. Эфир 11.11.2016
Внимание! Раздача ведётся путём добавления новых серий; при каждом добавлении создаётся новый торрент.
Чтобы начать докачку новой серии, пользователям необходимо сделать следующее:
1. Остановить скачивание;
2. Удалить старый торрент у себя из клиента (старые серии удалять не надо);
3. Скачать новый торрент и запустить его у себя в клиенте вместо старого, при этом указать клиенту путь в старую папку куда и должно происходить скачивание новых серий. Ваш клиент при этом должен произвести хеширование (проверку) старой папки и будет докачивать только те серии, которых у вас ещё нет. Старые серии при этом не удаляются, а продолжают раздаваться! Eсли вы уже удалили старые серии, то предотвратить повторную закачку старых серий можно, отжав галочку в соответствующих местах при запуске нового торрента.

Скриншоты:



Время раздачи: до появления первых 3-5 скачавших
 
Не забывайте говорить Спасибо. Не уходите с раздачи!   
Торрент: Зарегистрирован [12 ноя 2016, 08:41] Для скачивания .torrent
необходима регистрация
Или скачать с помощью
MediaGet
Статус:
Проверен
 
.torrent скачан: 0 раз
Хэш: 149cb755415ff20e392c33258a024f41186e0219
Размер: 13.08 ГБ (14 048 173 146 байт)
Стать Автором раздачи
 
 
Раздал: 100 ГБ
Скачал: 0 байт
Ратио: Seed.
Сообщения: 94065
Зарегистрирован: 09 апр 2015, 22:31


  • Похожие торренты
    Ответы
    Просмотры
    Последнее сообщение

Вернуться в Видео для мобильных устройств

Ресурс не предоставляет электронные версии произведений, а занимается лишь коллекционированием и каталогизацией ссылок, присылаемых и публикуемых на форуме нашими читателями. Если вы являетесь правообладателем какого-либо представленного материала и не желаете чтобы ссылка на него находилась в нашем каталоге, свяжитесь с нами и мы незамедлительно удалим её. Файлы для обмена на трекере предоставлены пользователями сайта, и администрация не несёт ответственности за их содержание. Просьба не заливать файлы, защищенные авторскими правами, а также файлы нелегального содержания!
cron