Большой Барьерный риф с Дэвидом Аттенборо (1-3 серии из 3) / Great Barrier Reef with David Attenborough (Майкл Дэвис / Michael Davis) [2016, Документальный, HDRip] BBC, VO (Ю.Онищенко), VO (Омикрон) + VO Ukr (Ю.Онищенк), Original Eng + Sub Rus, Eng

 
 Статистика раздачи 
Размер: 3.96 ГБ   |  Зарегистрирован: 11 ноя 2016, 17:10   |   .torrent скачан: 0 раз
Сидеров: 7  [ 0 байт/сек ]     Личеров: 2  [ 0 байт/сек ]  
  

Большой Барьерный риф с Дэвидом Аттенборо (1-3 серии из 3) / Great Barrier Reef with David Attenborough (Майкл Дэвис / Michael Davis) [2016, Документальный, HDRip] BBC, VO (Ю.Онищенко), VO (Омикрон) + VO Ukr (Ю.Онищенк), Original Eng + Sub Rus, Eng

Сообщение aLaVodka » 11 ноя 2016, 17:10

Большой Барьерный риф с Дэвидом Аттенборо / Great Barrier Reef with David Attenborough
Дата/Год выпуска: 2016
Страна: Великобритания
Жанр: Документальный, природа, фауна, исследование, океанология
Продолжительность: 3 x ~ 00:58:00
Перевод: Одноголосый (закадровый) - Ю.Онищенко (ник - Logos71), студийный (одноголосый закадровый) - студия "Омикрон", украинский одноголосый (закадровый) - Ю.Онищенко (ник - Logos71)

Формат субтитров: softsub (SRT)
Оригинальная аудиодорожка: есть, английская
Режиссер: Майкл Дэвис / Michael Davis
Рассказчик: Дэвид Аттенборо / David Attenborough

Телеканал: BBC
Описание: Хотите отправиться в захватывающее дух по красоте путешествие не отрываясь от мягкого, удобного дивана? Скорее берите с собой в путь что-нибудь повкуснее и вперед к новым вершинам подводного мира! Дэвид Аттенборо будет рад взять с собой в компанию пару-тройку лежебок, балласт на судне всегда может пригодиться, акулы не будут особо привередливы. Вместе с ведущим проекта, мы с Вами погрузимся в удивительный мир Большого Барьерного рифа. На судне Алюсия Дэвид приоткроет нам многие тайны этого удивительного уголка нашей планеты. Вы познакомитесь с историей рифа, сможете полюбоваться на многообразие различных видов жизни.
1. Строители / Builders
2. Гости рифа / Visitors
3. Выживание / Survival
Цитата:
Автор рипа: | Дата рипа: 2016-03-27 - 1 серия, 2016-08-21 - 2 и 3 серии | Исходник:

Русский (AC3, 6 ch, 448 Кбит/с) - любительский одноголосый от Ю.Онищенко (ник - Logos71) (все серии).

Русский (AC3, 6 ch, 448 Кбит/с) - профессиональный одноголосый - отдельными файлами (все серии). Переведено и озвучено студией "Омикрон" специально для HDCLUB. Задействован 1 актер. Русская дорожка получена наложением чистого голоса. Озвучивание осуществлено в рамках сервиса "Озвучивание". Спонсоры: Scorpion26, uniss, Voldemar_13, gelom, Turko, Спасибо, laser10, superbizho, hardkatok, naver, Radov, roman_serbay, Mixal11, DOMINO, user_hdclub, Brand, xyzab, SpaceShuttle, track74, ygorgor, mazzay88, tipip, dmpolg, Plesha, wormy, snowrider, CallistyaniN, utadmin, alexzender1, nikolyan, kornilov7, brother225, brat99, Romala.

Украинский (AC3, 6 ch, 448 Кбит/с) - озвучено Ю.Онищенко (ник - Logos71), монтаж звуку Hanway - отдельными файлами (все серии). Украинская дорожка взята с авторского релиза релиз-группы "Відео Гуртом".

Английский (AC3, 6 ch, 448 Кбит/с) - отдельными файлами (все серии).

Сведение русской дороги: 1 серия - Прагматик, 2 и 3 серии - Burn in
Русские субтитры: Ю.Онищенко - отдельными файлами

BDRip 720p ==>

Качество: HDRip
Формат: AVI
Видео: XviD, ~ 1450 Кбит/с, 720x400 (16:9), 25.000 fps
Аудио-1: Русский (AC3, 6 ch, 448 Кбит/с, 48.0 KHz) - Ю.Онищенко (ник - Logos71)
Аудио-2: Русский (AC3, 6 ch, 448 Кбит/с, 48.0 KHz) - студия "Омикрон". Отдельными файлами
Аудио-3: Украинский (AC3, 6 ch, 448 Кбит/с, 48.0 KHz) - Ю.Онищенко (ник - Logos71). Отдельными файлами
Аудио-4: Английский (AC3, 6 ch, 448 Кбит/с, 48.0 KHz) - отдельными файлами.
Complete name : D:\Раздачи\Большой Барьерный Риф с Дэвидом Аттенборо (2016) HDRip_Fандорин\1. Строители - Builders.avi
Format : AVI
Format/Info : Audio Video Interleave
File size : 794 MiB
Duration : 58mn 10s
Overall bit rate : 1 908 Kbps
Writing application : VirtualDubMod 1.5.10.3 | www.virtualdub-fr.org || (build 2550/release)
Writing library : VirtualDubMod build 2550/release

Video
ID : 0
Format : MPEG-4 Visual
Format profile : Advanced Simple@L5
Format settings, BVOP : 1
Format settings, QPel : No
Format settings, GMC : No warppoints
Format settings, Matrix : Default (MPEG)
Codec ID : XVID
Codec ID/Hint : XviD
Duration : 58mn 10s
Bit rate : 1 451 Kbps
Width : 720 pixels
Height : 400 pixels
Display aspect ratio : 16:9
Frame rate : 25.000 fps
Color space : YUV
Chroma subsampling : 4:2:0
Bit depth : 8 bits
Scan type : Progressive
Compression mode : Lossy
Bits/(Pixel*Frame) : 0.201
Stream size : 604 MiB (76%)
Writing library : XviD 73

Audio [Ю.Онищенко]
ID : 1
Format : AC-3
Format/Info : Audio Coding 3
Mode extension : CM (complete main)
Format settings, Endianness : Big
Codec ID : 2000
Duration : 58mn 10s
Bit rate mode : Constant
Bit rate : 448 Kbps
Channel(s) : 6 channels
Channel positions : Front: L C R, Side: L R, LFE
Sampling rate : 48.0 KHz
Frame rate : 31.250 fps (1536 spf)
Compression mode : Lossy
Stream size : 186 MiB (23%)
Alignment : Split accross interleaves
Interleave, duration : 40 ms (1.00 video frame)
Interleave, preload duratio : 500 ms

Audio [студия "Омикрон"]
ID : 2
Format : AC-3
Format/Info : Audio Coding 3
Mode extension : CM (complete main)
Format settings, Endianness : Big
Duration : 58mn 10s
Bit rate mode : Constant
Bit rate : 448 Kbps
Channel(s) : 6 channels
Channel positions : Front: L C R, Side: L R, LFE
Sampling rate : 48.0 KHz
Frame rate : 31.250 fps (1536 spf)
Compression mode : Lossy
Stream size : 186 MiB (100%)

Audio [украинский от Ю.Онищенко]
Format : AC-3
Format/Info : Audio Coding 3
Mode extension : CM (complete main)
Format settings, Endianness : Big
Duration : 58mn 11s
Bit rate mode : Constant
Bit rate : 448 Kbps
Channel(s) : 6 channels
Channel positions : Front: L C R, Side: L R, LFE
Sampling rate : 48.0 KHz
Frame rate : 31.250 fps (1536 spf)
Compression mode : Lossy
Stream size : 186 MiB (100%)

Audio [Eng]
ID : 3
Format : AC-3
Format/Info : Audio Coding 3
Mode extension : CM (complete main)
Format settings, Endianness : Big
Duration : 58mn 11s
Bit rate mode : Constant
Bit rate : 448 Kbps
Channel(s) : 6 channels
Channel positions : Front: L C R, Side: L R, LFE
Sampling rate : 48.0 KHz
Frame rate : 31.250 fps (1536 spf)
Compression mode : Lossy
Stream size : 186 MiB (100%)
 
Не забывайте говорить Спасибо. Не уходите с раздачи!   
Торрент: Зарегистрирован [11 ноя 2016, 17:10] Для скачивания .torrent
необходима регистрация
Или скачать с помощью
MediaGet
Статус:
Проверен
 
.torrent скачан: 0 раз
Хэш: 1c8fa1bf69326df614a82bb305a6d7b10d75c51f
Размер: 3.96 ГБ (4 256 469 138 байт)
Стать Автором раздачи
 
 
Раздал: 100 ГБ
Скачал: 0 байт
Ратио: Seed.
Сообщения: 186454
Зарегистрирован: 09 апр 2015, 20:00


  • Похожие торренты
    Ответы
    Просмотры
    Последнее сообщение

Вернуться в Флора и фауна (видео)

Кто сейчас на конференции

Сейчас эту тему просматривают: нет зарегистрированных пользователей и гости: 1

Ресурс не предоставляет электронные версии произведений, а занимается лишь коллекционированием и каталогизацией ссылок, присылаемых и публикуемых на форуме нашими читателями. Если вы являетесь правообладателем какого-либо представленного материала и не желаете чтобы ссылка на него находилась в нашем каталоге, свяжитесь с нами и мы незамедлительно удалим её. Файлы для обмена на трекере предоставлены пользователями сайта, и администрация не несёт ответственности за их содержание. Просьба не заливать файлы, защищенные авторскими правами, а также файлы нелегального содержания!