Ученые против мифов 2 (02.10.2016) WEBRip [H.264] (части 1-12 из 12) [MP4|1280x720]

 
 Статистика раздачи 
Размер: 4.01 ГБ   |  Зарегистрирован: 09 ноя 2016, 20:53   |   .torrent скачан: 0 раз
Сидеров: 1  [ 0 байт/сек ]     Личеров: 0  [ 0 байт/сек ]  
  

Ученые против мифов 2 (02.10.2016) WEBRip [H.264] (части 1-12 из 12) [MP4|1280x720]

Сообщение explosiveone » 09 ноя 2016, 20:53

Ученые против мифов 2 (02.10.2016) WEBRip

Жанр: Лекции, Документальный

Ведущий: Георгий Соколов
Докладчики: Александр Марков, Александр Панчин, Светлана Боринская, Светлана Бурлак, Михаил Родин, Станислав Дробышевский, Александр Соколов

Описание:
В июне нам удалось чуть-чуть приподнять завесу тайны… Однако ученые продолжают скрывать наше великое прошлое. Иллюзионисты и психологи твердят, что экстрасенсы – это обычные шарлатаны. Палеонтологи с маниакальным упорством ищут и находят переходные формы. Египтологи заставляют нас верить, что древние египтяне действительно построили то, что построили.

Продолжительность: ~00:40:00 лекция
Качество видео: WEBRip

Видео: AVC/H.264, 1280x720 (16:9), ~1299 Кбит/сек
Аудио: AAC, 2 ch, 126 Кбит/сек, VBR
Код: Выделить всё
Формат                                   : MPEG-4
Профиль формата                          : Base Media / Version 2
Идентификатор кодека                     : mp42 (isom/mp42)
Размер файла                             : 452 Мбайт
Продолжительность                        : 44 м. 14 с.
Режим общего битрейта                    : Переменный
Общий поток                              : 1429 Кбит/сек
Дата кодирования                         : UTC 2016-10-12 12:37:59
Дата пометки                             : UTC 2016-10-12 12:37:59
gsst                                     : 0
gstd                                     : 2654273

Видео
Идентификатор                            : 1
Формат                                   : AVC
Формат/Информация                        : Advanced Video Codec
Профиль формата                          :
Параметр CABAC формата                   : Да
Параметр ReFrames формата                : 3 кадра
Идентификатор кодека                     : avc1
Идентификатор кодека/Информация          : Advanced Video Coding
Продолжительность                        : 44 м. 14 с.
Битрейт                                  : 1299 Кбит/сек
Ширина                                   : 1280 пикселей
Высота                                   : 720 пикселей
Соотношение сторон                       : 16:9
Режим частоты кадров                     : Постоянный
Частота кадров                           : 29,970 (30000/1001) кадров/сек
Цветовое пространство                    : YUV
Субдискретизация насыщенности            : 4:2:0
Битовая глубина                          : 8 бит
Тип развёртки                            : Прогрессивная
Бит/(Пиксели*Кадры)                      : 0.047
Размер потока                            : 411 Мбайт (91%)
Заголовок                                : ISO Media file produced by Google Inc.
Дата кодирования                         : UTC 2016-10-12 12:37:59
Дата пометки                             : UTC 2016-10-12 12:37:59
Цветовой диапазон                        : Limited
Основные цвета                           : BT.709
Характеристики трансфера                 : BT.709
Коэффициенты матрицы                     : BT.709

Аудио
Идентификатор                            : 2
Формат                                   : AAC
Формат/Информация                        : Advanced Audio Codec
Профиль формата                          : LC
Идентификатор кодека                     : 40
Продолжительность                        : 44 м. 14 с.
Вид битрейта                             : Переменный
Битрейт                                  : 126 Кбит/сек
Каналы                                   : 2 канала
Расположение каналов                     : Front: L R
Частота                                  : 44,1 КГц
Частота кадров                           : 43,066 кадра/сек (1024 spf)
Метод сжатия                             : С потерями
Размер потока                            : 39,7 Мбайт (9%)
1. Алексей Водовозов - "Три мифа альтернативной медицины"
2. Александр Панчин - "Сон разума рождает чудовищ"
3. Светлана Боринская - "Демагоги и генетика"
4. Сергей Иванов - "Современные мифы о древнем Египте: пирамиды"
5. И.Семьян, В.Савин - "Медная труба по технологии древних египтян"
6. Светлана Бурлак - "Мифы об истории слов и языков - откуда они берутся?"
7. Михаил Родин - "Слово о полку Игореве против Велесовой Книги"
8. Алексей Бондарев - "Череп инопланетянина своими руками"
9. Александр Соколов - "Антропологи против Голливуда"
10. Станислав Дробышевский - "Мифы о Пупе Земли на Вершине Эволюции"
11. Александр Марков - "Мифы о переходных формах"
12. Почетный Академик ВРАЛ. Торжественная церемония.
Александр Марков - д.б.н., палеонтолог, популяризатор науки, зав. кафедрой биологической эволюции биологического факультета МГУ, лауреат премии «Просветитель» (2011 г.)
Александр Панчин - к.б.н., популяризатор науки, старший научный сотрудник Института проблем передачи информации РАН имени Харкевича, член Комиссии РАН по борьбе с лженаукой и фальсификацией научных исследований, автор книги «Сумма биотехнологии»
Светлана Боринская - д.б.н., генетик, ведущий научный сотрудник лаборатории анализа генома Института общей генетики им. Н.И.Вавилова РАН
Светлана Бурлак - д. ф. н., лингвист, старший научный сотрудник Института востоковедения РАН, автор книги «Происхождение языка. Факты, исследования, гипотезы»
Михаил Родин - историк, журналист, автор документальных фильмов, автор-ведущий программы «Родина слонов»
Станислав Дробышевский - к.б.н., антрополог, популяризатор науки, научный редактор портала АНТРОПОГЕНЕЗ.РУ
Александр Соколов - научный журналист, популяризатор науки, создатель и бессменный редактор портала АНТРОПОГЕНЕЗ.РУ, автор книги «Мифы об эволюции человека»
✔ Череп инопланетянина своими руками. Коровы против пришельцев
✔ Практическое руководство по строительству пирамиды «без НЛО»
✔ Откуда берутся слова: лингвисты против лингво-фриков
✔ «Не основано на реальных событиях»: антропологи против Голливуда
✔ Легко ли обмануть историка? Слово о полку Игореве против Велесовой Книги
✔ Мифы альтернативной медицины
✔ Сон разума рождает чудовищ: нейробиологические основы мифов о паранормальном
✔ Дерматоглифическое тестирование: афера, которая провалилась

Скриншоты:



Время раздачи:
по возможности (до появления первых 3-5 скачавших)
 
Не забывайте говорить Спасибо. Не уходите с раздачи!   
Торрент: Зарегистрирован [09 ноя 2016, 20:53] Для скачивания .torrent
необходима регистрация
Или скачать с помощью
MediaGet
Статус:
Проверен
 
.torrent скачан: 0 раз
Хэш: 8a28d0042f4ecd423713fb0e724d10fb3400d6e2
Размер: 4.01 ГБ (4 310 605 778 байт)
Стать Автором раздачи
 
 
Раздал: 100 ГБ
Скачал: 0 байт
Ратио: Seed.
Сообщения: 94007
Зарегистрирован: 09 апр 2015, 22:31


  • Похожие торренты
    Ответы
    Просмотры
    Последнее сообщение

Вернуться в Видео для мобильных устройств

Ресурс не предоставляет электронные версии произведений, а занимается лишь коллекционированием и каталогизацией ссылок, присылаемых и публикуемых на форуме нашими читателями. Если вы являетесь правообладателем какого-либо представленного материала и не желаете чтобы ссылка на него находилась в нашем каталоге, свяжитесь с нами и мы незамедлительно удалим её. Файлы для обмена на трекере предоставлены пользователями сайта, и администрация не несёт ответственности за их содержание. Просьба не заливать файлы, защищенные авторскими правами, а также файлы нелегального содержания!
cron