Море деревьев / The Sea of Trees (2015) HDRip [H.264] [MP4|1024x426]

 
 Статистика раздачи 
Размер: 1.62 ГБ   |  Зарегистрирован: 09 ноя 2016, 07:22   |   .torrent скачан: 0 раз
Сидеров: 1  [ 0 байт/сек ]     Личеров: 0  [ 0 байт/сек ]  
  

Море деревьев / The Sea of Trees (2015) HDRip [H.264] [MP4|1024x426]

Сообщение explosiveone » 09 ноя 2016, 07:22

Море деревьев / The Sea of Trees (2015) HDRip

«Love will bring you home»

Производство: США / Bloom, Netter Productions, Waypoint Entertainment
Жанр: Драма

Режиссер: Гас Ван Сент
Актеры: Мэттью МакКонахи, Наоми Уоттс, Кэтрин Аселтон, Джордан Джаварис, Кен Ватанабе, Джеймс Саито, Оуэн Бурк, Марк Бузенски, Сьюзэн ДеБерардинис, Маккензи Хоу

Описание:
Американец-самоубийца знакомится с японцем, потерявшимся в лесу рядом с горой Фудзи, и вместе они пытаются отыскать дорогу


Возраст: 12+ (зрителям, достигшим 12 лет)
Рейтинг MPAA: PG-13 (детям до 13 лет просмотр нежелателен)

Релиз от: NNMClub
Продолжительность: 01:46:14
Качество видео: HDRip
Перевод: Многоголосый закадровый
Вид субтитров: Отсутствуют
Реклама: Присутствуют вставки рекламы.

Видео: AVC/H.264 (Main@L3.1), 1024x426 (2.40:1), 2050 Кбит/сек
Аудио #1: AAC, 2 канала, 128 Кбит/сек - русский (Многоголосый закадровый )
Код:
General
Complete name                            : C:\DGI\The.sea.of.trees.2015.576p.HDRip.AAC.h264.NNMclub.mp4
Format                                   : MPEG-4
Format profile                           : Base Media / Version 2
Codec ID                                 : mp42 (mp42/isom)
File size                                : 1.62 GiB
Duration                                 : 1h 46mn
Overall bit rate mode                    : Variable
Overall bit rate                         : 2 183 Kbps
Movie name                               : The Sea of Trees
Performer                                : Gus Van Sant
Director                                 : Gus Van Sant
Actor                                    : Matthew McConaughey / Naomi Watts / Ken Watanabe
Screenplay by                            : Chris Sparling
Producer                                 : Chris Sparling / Ken Kao / Gil Netter / Kevin Halloran
Genre                                    : Drama
ContentType                              : Short Film
Description                              : Acclaimed director Gus Van Sant's 'The Sea of Trees' is a deeply moving story about the destructive
Recorded date                            : 2016-09-07
Encoded date                             : UTC 2016-11-07 19:21:01
Tagged date                              : UTC 2016-11-07 19:33:31
Copyright                                : © 2015 Grand Experiment, LLC
Cover                                    : Yes
Rating                                   : None
LongDescription                          : Starring Matthew McConaughey and Naomi Watts, acclaimed director Gus Van Sant’s THE SEA OF TREES is a deeply moving story about the destructive, redemptive and healing nature of love.  It’s love and loss that lead Arthur Brennan (McConaughey), across the world to Japan’s Aokigahara, a mysterious dense forest known as The Sea of Trees lapping the foothills of Japan’s Mount Fuji – a place where people go to contemplate life and death.
AppleStoreCountry                        : New Zealand
AppleStoreCatalogID                      : 1133026525
ContentRating                            : nz-movie|R13|325|

Video
ID                                       : 1
Format                                   : AVC
Format/Info                              : Advanced Video Codec
Format profile                           :
Format settings, CABAC                   : Yes
Format settings, ReFrames                : 3 frames
Codec ID                                 : avc1
Codec ID/Info                            : Advanced Video Coding
Duration                                 : 1h 46mn
Bit rate                                 : 2 050 Kbps
Width                                    : 1 024 pixels
Height                                   : 426 pixels
Display aspect ratio                     : 2.40:1
Frame rate mode                          : Constant
Frame rate                               : 25.000 fps
Color space                              : YUV
Chroma subsampling                       : 4:2:0
Bit depth                                : 8 bits
Scan type                                : Progressive
Bits/(Pixel*Frame)                       : 0.188
Stream size                              : 1.52 GiB (94%)
Writing library                          : x264 core 148 r2721+55 e19946b t_mod_Custom [8-bit@all X86_64]
Encoding settings                        : cabac=1 / ref=3 / deblock=1:-3:-3 / analyse=0x1:0x131 / me=umh / subme=7 / psy=1 / fade_compensate=0.00 / psy_rd=1.00:0.20 / mixed_ref=1 / me_range=32 / chroma_me=1 / trellis=2 / 8x8dct=0 / cqm=0 / deadzone=21,11 / fast_pskip=0 / chroma_qp_offset=-3 / threads=13 / lookahead_threads=2 / sliced_threads=0 / nr=0 / decimate=0 / interlaced=0 / bluray_compat=0 / constrained_intra=0 / fgo=0 / bframes=2 / b_pyramid=1 / b_adapt=2 / b_bias=0 / direct=3 / weightb=1 / open_gop=0 / weightp=2 / keyint=250 / keyint_min=25 / scenecut=40 / intra_refresh=0 / rc_lookahead=60 / rc=2pass / mbtree=1 / bitrate=2050 / ratetol=1.0 / qcomp=0.60 / qpmin=0:0:0 / qpmax=69:69:69 / qpstep=4 / cplxblur=20.0 / qblur=0.5 / vbv_maxrate=10000 / vbv_bufsize=10000 / nal_hrd=none / filler=0 / ip_ratio=1.40 / aq=3:0.90 / aq-sensitivity=10.00 / aq-factor=1.00:1.00:1.00 / aq2=1:0.90 / aq2-sensitivity=15.00 / aq2-factor=1.00:1.00:1.00 / aq3=4:[0.50:0.50]:[0.50:0.50]:[0.50:0.50]:[0.50:0.50] / aq3-sensitivity=10.00 / aq3-factor=[1.00:1.00]:[1.00:1.00]:[1.00:1.00] / aq3-boundary=192:64:24
Encoded date                             : UTC 2016-11-07 19:21:01
Tagged date                              : UTC 2016-11-07 19:27:27
Color range                              : Limited
Color primaries                          : BT.709
Transfer characteristics                 : BT.709
Matrix coefficients                      : BT.709

Audio
ID                                       : 2
Format                                   : AAC
Format/Info                              : Advanced Audio Codec
Format profile                           : LC
Codec ID                                 : 40
Duration                                 : 1h 46mn
Source duration                          : 1h 46mn
Bit rate mode                            : Variable
Bit rate                                 : 128 Kbps
Maximum bit rate                         : 132 Kbps
Channel(s)                               : 2 channels
Channel positions                        : Front: L R
Sampling rate                            : 48.0 KHz
Frame rate                               : 46.875 fps (1024 spf)
Compression mode                         : Lossy
Stream size                              : 97.3 MiB (6%)
Source stream size                       : 97.3 MiB (6%)
Language                                 : Russian
Default                                  : Yes
Alternate group                          : 1
Encoded date                             : UTC 2016-11-07 19:21:01
Tagged date                              : UTC 2016-11-07 19:27:27

Скриншоты:



Время раздачи: 24/7 (круглосуточно) (до появления первых 3-5 скачавших)
 
Не забывайте говорить Спасибо. Не уходите с раздачи!   
Торрент: Зарегистрирован [09 ноя 2016, 07:22] Для скачивания .torrent
необходима регистрация
Или скачать с помощью
MediaGet
Статус:
Проверен
 
.torrent скачан: 0 раз
Хэш: 712b03614fa3d747156b0a4c1f18e96b1d023735
Размер: 1.62 ГБ (1 739 589 739 байт)
Стать Автором раздачи
 
 
Раздал: 100 ГБ
Скачал: 0 байт
Ратио: Seed.
Сообщения: 94059
Зарегистрирован: 09 апр 2015, 22:31


  • Похожие торренты
    Ответы
    Просмотры
    Последнее сообщение

Вернуться в Видео для мобильных устройств

Ресурс не предоставляет электронные версии произведений, а занимается лишь коллекционированием и каталогизацией ссылок, присылаемых и публикуемых на форуме нашими читателями. Если вы являетесь правообладателем какого-либо представленного материала и не желаете чтобы ссылка на него находилась в нашем каталоге, свяжитесь с нами и мы незамедлительно удалим её. Файлы для обмена на трекере предоставлены пользователями сайта, и администрация не несёт ответственности за их содержание. Просьба не заливать файлы, защищенные авторскими правами, а также файлы нелегального содержания!
cron