Руслан, который объединил мир (2011) DVB

 
 Статистика раздачи 
Размер: 672.08 МБ   |  Зарегистрирован: 09 ноя 2016, 07:18   |   .torrent скачан: 0 раз
Сидеров: 1  [ 0 байт/сек ]     Личеров: 0  [ 0 байт/сек ]  
  

Руслан, который объединил мир (2011) DVB

Сообщение explosiveone » 09 ноя 2016, 07:18

Руслан, который объединил мир (2011) DVB

Телекомпания: Россия, Арт Глобал продакшн
Жанр: Документальный

Участники: Режиссеры: Олег Галин, Дмитрий Кулёв

Описание:
Фильм посвящен истории создания транспортного самолёта «Руслан» (по кодификации НАТО: Condor — «кондор») во времена СССР и его второй жизни в наши дни. "Для того, чтобы эти полеты стали обыденными, понадобилось почти сорок лет, два шпионских скандала, десять долгих встреч с тремя президентами и упрямство, которое многие называли "упертостью". О том, что на самом деле происходило с этой машиной, сегодня достоверно знают всего лишь пять человек. Те же, кто садится за штурвал этого самолета, об истории его создания просто не задумываются. Они просто летают. Открывая для себя все новые и новые миры, которые дарит им эта удивительная птица."


Продолжительность: 00:52:37
Качество видео: DVB

Видео: AVC/H.264, 720х576@768x576, ~1536 kb/s
Аудио: MP2, 2 ch, 160 kb/s, CBR
Код: Выделить всё
Общее
Идентификатор                            : 16 (0x10)
Полное имя                               : Руслан_который объединил мир.ts
Формат                                   : MPEG-TS
Размер файла                             : 672 Мбайт
Продолжительность                        : 52 м.
Режим общего битрейта                    : Переменный
Общий поток                              : 1786 Кбит/сек

Видео
Идентификатор                            : 3213 (0xC8D)
Идентификатор меню                       : 1213 (0x4BD)
Формат                                   : AVC
Формат/Информация                        : Advanced Video Codec
Профиль формата                          :
Параметр CABAC формата                   : Да
Параметр ReFrames формата                : 3 кадра
Параметр GOP формата                     : M=4, N=28
Идентификатор кодека                     : 27
Продолжительность                        : 52 м.
Битрейт                                  : 1536 Кбит/сек
Ширина                                   : 720 пикселей
Высота                                   : 576 пикселей
Соотношение сторон                       : 4:3
Частота кадров                           : 25,000 кадров/сек
Стандарт вещания                         : PAL
Цветовое пространство                    : YUV
Субдискретизация насыщенности            : 4:2:0
Битовая глубина                          : 8 бит
Тип развёртки                            : Чересстрочная
Порядок развёртки                        : Верхнее поле первое
Бит/(Пиксели*Кадры)                      : 0.148
Размер потока                            : 578 Мбайт (86%)
Основные цвета                           : BT.601 PAL
Характеристики трансфера                 : BT.470 System B, BT.470 System G
Коэффициенты матрицы                     : BT.601

Аудио
Идентификатор                            : 4213 (0x1075)
Идентификатор меню                       : 1213 (0x4BD)
Формат                                   : MPEG Audio
Версия формата                           : Version 1
Профиль формата                          : Layer 2
Идентификатор кодека                     : 4
Продолжительность                        : 52 м.
Вид битрейта                             : Постоянный
Битрейт                                  : 160 Кбит/сек
Каналы                                   : 2 канала
Частота                                  : 48,0 КГц
Метод сжатия                             : С потерями
Задержка видео                           : 12 мс.
Размер потока                            : 60,2 Мбайт (9%)
Язык                                     : std
Язык, дополнительно                      : Clean effects
Уникальные грузы
Первым использованием грузового потенциала самолёта в гражданских целях стала доставка в декабре 1985 г. на опытном экземпляре «Руслана» 152-тонного карьерного самосвала «Юклид» из Владивостока в Полярный (Якутия). Машину перевозили в два рейса.
31 мая 1986 года на «Руслане» из Харькова в Ташкент было отправлено рабочее колесо гидротурбины диаметром 6 м и массой 80 т для Таш-Кумырской ГЭС. Через 20 дней по тому же маршруту перевезли и второе аналогичное колесо.
В мае 1992 г. из Эмиратов в Швейцарию на «Руслане» перевезли 52 тонны золота стоимостью 230 миллионов фунтов стерлингов.
В 1993 г. Майкл Джексон перевёз в Москву 310 т своих грузов на трёх «Русланах».
В январе 2001 г. Ан-124 был использован для транспортирования 109-тонного локомотива из Канады в Ирландию.
Ан-124 использовался для возвращения Аксумского обелиска в Эфиопию в апреле 2005 года. Транспортировка была осуществлена в три этапа, во время каждого из них перевозили треть монумента общей массой 160 тонн и длиной 24 метра.
Весной 2011 года Ан-124 был использован для доставки в Японию гигантских насосов, произведённых компанией Putzmeister (нем.)русск.. Каждый насос установлен на 26-колёсной автоплатформе и весит более 86 тонн. Насосы использовались для ликвидации аварии на японской АЭС Фукусима-1.
25 июля 2011 года авиакомпания «Волга-Днепр» доставила из Шалона (Франция) в Москву комплексный пилотажный тренажёр для обучения лётного состава на самолёты Sukhoi Superjet 100. Перевозка груза была осуществлена по заказу ЗАО Гражданские самолёты Сухого. Несмотря на то, что общий вес груза составил всего 40 тонн, потребовалось выполнить второй рейс на Ил-76ТД-90ВД, так как негабаритные комплектующие заняли практически полностью грузовые отсеки самолётов.
Интересные факты
Самолёт исполнил роль воздушного штаба Густава Грейвза — полковника Тан Зи Муна, в фильме «Умри, но не сейчас». Тот самый лайнер, на борту которого происходит действие последних 30 минут фильма.
Самолёт с бортовым номером RA-82072 использовался при съёмках фильма «Ширли-мырли». На тот момент он принадлежал ГТК «Россия».
В игре Hitman: Contracts в третьей миссии на Камчатке в аэропорту, откуда агент 47 начинает задание, стоит Ан-124. В конце миссии 47 его угоняет.
Самолёт UR-82007 появляется в фильме канала National Geographic Channel — «Чудеса инженерии. Грузовые самолёты.»
О самолёте снят фильм на канале Discovery Channel — «Гигантские самолёты».
9 сильнейших атлетов мира сдвинули и переместили на 5 метров самолёт «Руслан» весом 195 тонн. 15 августа на Авиасалоне «Ульяновск-2010».
Самолёт Ан-124 использовался в мультфильме «Настоящие охотники за привидениями» для перевозки служебного автомобиля из Нью-Йорка в Париж.
Самолёт Ан-124 использовался в фильме «Форсаж 6» в 2013 году.
Снят документальный фильм «Руслан, который объединил мир».

Скриншоты:




Время раздачи: Сб-Вс с 09:00 до 23:30 (до появления первых 3-5 скачавших)
 
Не забывайте говорить Спасибо. Не уходите с раздачи!   
Торрент: Зарегистрирован [09 ноя 2016, 07:18] Для скачивания .torrent
необходима регистрация
Или скачать с помощью
MediaGet
Статус:
Проверен
 
.torrent скачан: 0 раз
Хэш: 8ba91b0b01e7d08aba77b923e9f1ba63d0a55c59
Размер: 672.08 МБ (704 729 280 байт)
Стать Автором раздачи
 
 
Раздал: 100 ГБ
Скачал: 0 байт
Ратио: Seed.
Сообщения: 89734
Зарегистрирован: 09 апр 2015, 22:31


Вернуться в Авиация (видео)

Ресурс не предоставляет электронные версии произведений, а занимается лишь коллекционированием и каталогизацией ссылок, присылаемых и публикуемых на форуме нашими читателями. Если вы являетесь правообладателем какого-либо представленного материала и не желаете чтобы ссылка на него находилась в нашем каталоге, свяжитесь с нами и мы незамедлительно удалим её. Файлы для обмена на трекере предоставлены пользователями сайта, и администрация не несёт ответственности за их содержание. Просьба не заливать файлы, защищенные авторскими правами, а также файлы нелегального содержания!
cron