Наши любовники / Nuestros amantes (2016) HDRip [H.264] [MP4|1024x428]

 
 Статистика раздачи 
Размер: 1.45 ГБ   |  Зарегистрирован: 08 ноя 2016, 06:41   |   .torrent скачан: 0 раз
Сидеров: 1  [ 0 байт/сек ]     Личеров: 0  [ 0 байт/сек ]  
  

Наши любовники / Nuestros amantes (2016) HDRip [H.264] [MP4|1024x428]

Сообщение explosiveone » 08 ноя 2016, 06:41

Наши любовники / Nuestros amantes (2016) HDRip

«Хотите – верьте, хотите – нет, вы скоро влюбитесь!»

Производство: Испания / Ad hoc studios, Bemybaby Films
Жанр: Драма, Мелодрама, Комедия

Режиссер: Мигель Анхель Ламата
Актеры: Эдуардо Норьега Мишель Хеннер Феле Мартинес Амайя Саламанка Габино Диего Хорхе Усон Мария Хосе Морено Кристина Джэллего Саломе Хименес Ирен Лопес Кабальер

Описание:
Карлос — умный и привлекательный, но выглядит грустно, будто судьба совсем не балует его. Однажды он отправляется в книжный бар, чтобы впервые в жизни выпить бренди. Ирен — прирожденная выдумщица и завсегдатай этого места.
Они встретились не случайно: его сердце разбито, ее — растоптано. Один взгляд и между ними вспыхивает роман под выдуманными именами, импровизация без всякой спешки и обязательств. Вместе они отказываются от реальной жизни и с азартом окунаются в новый, иллюзорный мир, отправляя нас в приключение, наполненное юмором и нежностью.


Возраст: 18+ (зрителям, достигшим 18 лет. запрещено для детей)

Релиз от: NNMClub
Продолжительность: 01:31:48
Качество видео: HDRip
Перевод: Многоголосый закадровый
Вид субтитров: Отсутствуют

Видео: AVC/H.264 (Main@L3.1), 1024x428 (2.40:1), 2000 Кбит/сек
Аудио #1: AAC, 2 канала, 128 Кбит/сек - русский (многоголосый закадровый)
Аудио #2: AAC, 2 канала, 128 Кбит/сек - испанский
Код:
General
Complete name                            : C:\CREATE\264mod1\out\Nuestros.Amantes.2016.576p.HDRip.h264.AAC.NNMclub.mp4
Format                                   : MPEG-4
Format profile                           : Base Media / Version 2
Codec ID                                 : mp42 (mp42/isom)
File size                                : 1.45 GiB
Duration                                 : 1h 31mn
Overall bit rate mode                    : Variable
Overall bit rate                         : 2 264 Kbps
Movie name                               : Nuestros amantes
Performer                                : Miguel Ángel Lamata
Director                                 : Miguel Ángel Lamata
Actor                                    : Eduardo Noriega / Michelle Jenner / Fele Martínez / Amaia Salamanca / Gabino Diego / Jorge Usón
Screenplay by                            : Miguel Ángel Lamata
Production studio                        : Bemybaby Films
Genre                                    : Romance, Comedia
ContentType                              : Short Film
Description                              : Carlos (Eduardo Noriega) es un escritor de guiones de cine de unos 40 años frustrado profesionalmente. Irene (Michelle Jenner) tiene unos 30 años y no tiene claro qué hacer con su vida. Sobre ellos aún planean las sombras de sus antiguas relaciones: María (Amaia Salamanca) y Jorge (Gabino Diego). Cuando Irene se encuentra con Carlos en una librería-café, sin conocerle de nada, se acerca a él y le propone un juego: convertir sus vidas anodinas en una aventura. Irene es una soñadora nata. Carlos ha olvidado cómo soñar. Juntos harán lo imposible por lograr ser felices. Sólo hay una norma: no enamorarse.
Recorded date                            : 2016-02-08
Encoded date                             : UTC 2016-11-07 19:13:57
Tagged date                              : UTC 2016-11-07 19:19:12
Cover                                    : Yes
Rating                                   : None
LongDescription                          : Carlos (Eduardo Noriega) es un escritor de guiones de cine de unos 40 años frustrado profesionalmente. Irene (Michelle Jenner) tiene unos 30 años y no tiene claro qué hacer con su vida. Sobre ellos aún planean las sombras de sus antiguas relaciones: María (Amaia Salamanca) y Jorge (Gabino Diego). Cuando Irene se encuentra con Carlos en una librería-café, sin conocerle de nada, se acerca a él y le propone un juego: convertir sus vidas anodinas en una aventura. Irene es una soñadora nata. Carlos ha olvidado cómo soñar. Juntos harán lo imposible por lograr ser felices. Sólo hay una norma: no enamorarse.

Video
ID                                       : 1
Format                                   : AVC
Format/Info                              : Advanced Video Codec
Format profile                           :
Format settings, CABAC                   : Yes
Format settings, ReFrames                : 3 frames
Codec ID                                 : avc1
Codec ID/Info                            : Advanced Video Coding
Duration                                 : 1h 31mn
Bit rate                                 : 2 000 Kbps
Width                                    : 1 024 pixels
Height                                   : 428 pixels
Display aspect ratio                     : 2.40:1
Frame rate mode                          : Variable
Frame rate                               : 24.000 fps
Minimum frame rate                       : 23.810 fps
Maximum frame rate                       : 24.390 fps
Color space                              : YUV
Chroma subsampling                       : 4:2:0
Bit depth                                : 8 bits
Scan type                                : Progressive
Bits/(Pixel*Frame)                       : 0.190
Stream size                              : 1.28 GiB (88%)
Writing library                          : x264 core 148 r2721+55 e19946b t_mod_Custom [8-bit@all X86_64]
Encoding settings                        : cabac=1 / ref=3 / deblock=1:-3:-3 / analyse=0x1:0x131 / me=umh / subme=7 / psy=1 / fade_compensate=0.00 / psy_rd=1.00:0.20 / mixed_ref=1 / me_range=32 / chroma_me=1 / trellis=2 / 8x8dct=0 / cqm=0 / deadzone=21,11 / fast_pskip=0 / chroma_qp_offset=-3 / threads=13 / lookahead_threads=2 / sliced_threads=0 / nr=0 / decimate=0 / interlaced=0 / bluray_compat=0 / constrained_intra=0 / fgo=0 / bframes=2 / b_pyramid=1 / b_adapt=2 / b_bias=0 / direct=3 / weightb=1 / open_gop=0 / weightp=2 / keyint=240 / keyint_min=24 / scenecut=40 / intra_refresh=0 / rc_lookahead=60 / rc=2pass / mbtree=1 / bitrate=2000 / ratetol=1.0 / qcomp=0.60 / qpmin=0:0:0 / qpmax=69:69:69 / qpstep=4 / cplxblur=20.0 / qblur=0.5 / vbv_maxrate=10000 / vbv_bufsize=10000 / nal_hrd=none / filler=0 / ip_ratio=1.40 / aq=3:0.85 / aq-sensitivity=10.00 / aq-factor=1.00:1.00:1.00 / aq2=1:0.80 / aq2-sensitivity=15.00 / aq2-factor=1.00:1.00:1.00 / aq3=4:[0.50:0.50]:[0.50:0.50]:[0.50:0.50]:[0.50:0.50] / aq3-sensitivity=10.00 / aq3-factor=[1.00:1.00]:[1.00:1.00]:[1.00:1.00] / aq3-boundary=192:64:24
Encoded date                             : UTC 2016-11-07 19:13:57
Tagged date                              : UTC 2016-11-07 19:18:25
Color range                              : Limited
Color primaries                          : BT.709
Transfer characteristics                 : BT.709
Matrix coefficients                      : BT.709
Menus                                    : 4

Audio #1
ID                                       : 2
Format                                   : AAC
Format/Info                              : Advanced Audio Codec
Format profile                           : LC
Codec ID                                 : 40
Duration                                 : 1h 31mn
Source duration                          : 1h 31mn
Bit rate mode                            : Variable
Bit rate                                 : 128 Kbps
Maximum bit rate                         : 132 Kbps
Channel(s)                               : 2 channels
Channel positions                        : Front: L R
Sampling rate                            : 48.0 KHz
Frame rate                               : 46.875 fps (1024 spf)
Compression mode                         : Lossy
Stream size                              : 84.0 MiB (6%)
Source stream size                       : 84.0 MiB (6%)
Language                                 : Russian
Default                                  : Yes
Alternate group                          : 1
Encoded date                             : UTC 2016-11-07 19:13:57
Tagged date                              : UTC 2016-11-07 19:18:25

Audio #2
ID                                       : 3
Format                                   : AAC
Format/Info                              : Advanced Audio Codec
Format profile                           : LC
Codec ID                                 : 40
Duration                                 : 1h 31mn
Source duration                          : 1h 31mn
Bit rate mode                            : Variable
Bit rate                                 : 128 Kbps
Maximum bit rate                         : 132 Kbps
Channel(s)                               : 2 channels
Channel positions                        : Front: L R
Sampling rate                            : 48.0 KHz
Frame rate                               : 46.875 fps (1024 spf)
Compression mode                         : Lossy
Stream size                              : 84.0 MiB (6%)
Source stream size                       : 84.0 MiB (6%)
Language                                 : Spanish
Default                                  : No
Alternate group                          : 1
Encoded date                             : UTC 2016-11-07 19:13:57
Tagged date                              : UTC 2016-11-07 19:18:25

Menu
ID                                       : 4
Codec ID                                 : text
Duration                                 : 1h 31mn
Language                                 : English
Encoded date                             : UTC 2016-11-07 19:18:25
Tagged date                              : UTC 2016-11-07 19:18:25
Bit rate mode                            : CBR
Menu For                                 : 1
Duration_LastFrame                       : -191502
00:00:00.000                             : 00:00:00.000
00:05:00.000                             : 00:05:00.000
00:10:00.000                             : 00:10:00.000
00:15:00.000                             : 00:15:00.000
00:20:00.000                             : 00:20:00.000
00:25:00.000                             : 00:25:00.000
00:30:00.000                             : 00:30:00.000
00:35:00.000                             : 00:35:00.000
00:40:00.000                             : 00:40:00.000
00:45:00.000                             : 00:45:00.000
00:50:00.000                             : 00:50:00.000
00:55:00.000                             : 00:55:00.000
01:00:00.000                             : 01:00:00.000
01:05:00.000                             : 01:05:00.000
01:10:00.000                             : 01:10:00.000
01:15:00.000                             : 01:15:00.000
01:20:00.000                             : 01:20:00.000
01:25:00.000                             : 01:25:00.000
01:30:00.000                             : 01:30:00.000

Скриншоты:



Время раздачи: 24/7 (круглосуточно) (до появления первых 3-5 скачавших)
 
Не забывайте говорить Спасибо. Не уходите с раздачи!   
Торрент: Зарегистрирован [08 ноя 2016, 06:41] Для скачивания .torrent
необходима регистрация
Или скачать с помощью
MediaGet
Статус:
Проверен
 
.torrent скачан: 0 раз
Хэш: fcb6f872e3f95d4ac6ae848b6f80905ac9de2aa6
Размер: 1.45 ГБ (1 559 065 498 байт)
Стать Автором раздачи
 
 
Раздал: 100 ГБ
Скачал: 0 байт
Ратио: Seed.
Сообщения: 94068
Зарегистрирован: 09 апр 2015, 22:31


  • Похожие торренты
    Ответы
    Просмотры
    Последнее сообщение

Вернуться в Видео для мобильных устройств

Ресурс не предоставляет электронные версии произведений, а занимается лишь коллекционированием и каталогизацией ссылок, присылаемых и публикуемых на форуме нашими читателями. Если вы являетесь правообладателем какого-либо представленного материала и не желаете чтобы ссылка на него находилась в нашем каталоге, свяжитесь с нами и мы незамедлительно удалим её. Файлы для обмена на трекере предоставлены пользователями сайта, и администрация не несёт ответственности за их содержание. Просьба не заливать файлы, защищенные авторскими правами, а также файлы нелегального содержания!
cron