В тихом омуте / Ma Loute (2016) BDRip [H.264] [MP4|1280x532]

 
 Статистика раздачи 
Размер: 3.78 ГБ   |  Зарегистрирован: 08 ноя 2016, 00:09   |   .torrent скачан: 0 раз
Сидеров: 1  [ 0 байт/сек ]     Личеров: 0  [ 0 байт/сек ]  
  

В тихом омуте / Ma Loute (2016) BDRip [H.264] [MP4|1280x532]

Сообщение explosiveone » 08 ноя 2016, 00:09

В тихом омуте / Ma Loute (2016) BDRip


Производство: Франция / Canal+, 3B Productions, Arte France
Жанр: Комедия, Триллер, Детектив

Режиссер: Брюно Дюмон
Актеры: Фабрис Лукини, Жюльет Бинош, Валерия Бруни-Тедески, Жан-Люк Винсент, Брандон Лавьевиль, Ральф, Дидье Депре, Сирил Риго, Лаура Дюпре, Тьерри Лавьевиль

Описание:
Лето 1910 года. Один за другим исчезают туристы, забредающие в тихую бухту, где живут Брефоры – полунищая семейка собирателей мидий. Неподалеку в собственном особняке каждое лето проводят ван Петегемы, буржуа с претензией на декаданс, но с явными признаками психических отклонений у всех членов семьи, за исключением красавицы Билли. Да и с ней, собственно, что-то не так. Семейки явно недолюбливают друг друга, но юные Малют Брефор и Билли ван Петегем внезапно ощущают влечение друг к другу. История усугубляется тем, что Брефоры – каннибалы, втихую поедающие одиноких путников (на одних мидиях долго не протянешь), а ван Петегемы – просто идиоты! Свою долю хаоса добавляют придурковатые инспекторы Машан и Малфой, прибывшие расследовать таинственные исчезновения.


Возраст: 16+ (зрителям, достигшим 16 лет)

Релиз от: NNMClub
Продолжительность: 02:03:05
Качество видео: BDRip
Перевод: Дублированный - (iTunes)
Вид субтитров: Отсутствуют
Реклама: Без рекламы

Видео: AVC/H.264 (Main@L3.1), 1280x532 (2.40:1), 4150 Кбит/сек
Аудио #1: AAC, 2 канала, 128 Кбит/сек - русский (дублированный)
Аудио #2: AAC, 2 канала, 128 Кбит/сек - французский
Код:
General
Complete name                            : C:\CREATE\264mod1\out\Ma.Loute.2016.720p.BDRip.AAC.h264.NNMclub.mp4
Format                                   : MPEG-4
Format profile                           : Base Media / Version 2
Codec ID                                 : mp42 (mp42/isom)
File size                                : 3.78 GiB
Duration                                 : 2h 3mn
Overall bit rate mode                    : Variable
Overall bit rate                         : 4 402 Kbps
Movie name                               : Ma Loute
Performer                                : Bruno Dumont
Director                                 : Bruno Dumont
Genre                                    : Comédie
ContentType                              : Short Film
Description                              : Eté 1910, baie de la Slack dans le nord de la France. De mystérieuses disparitions mettent en émoi
Recorded date                            : 2016-05-13
Encoded date                             : UTC 2016-11-06 21:06:44
Tagged date                              : UTC 2016-11-07 05:56:16
Cover                                    : Yes
Rating                                   : None
LongDescription                          : Eté 1910, baie de la Slack dans le nord de la France. De mystérieuses disparitions mettent en émoi la région. L'improbable inspecteur Machin et son sagace Malfoy (mal)mènent l'enquête. Ils se retrouvent bien malgré eux, au cœur d'une étrange et dévorante histoire d'amour entre Ma Loute, fils ainé d'une famille de pêcheurs aux mœurs bien particulières et Billie de la famille Van Peteghem, riches bourgeois lillois décadents.
HDVideo                                  : Yes
AppleStoreCountry                        : France
AppleStoreCatalogID                      : 1113854366
ContentRating                            : fr-movie|Tout public|000|

Video
ID                                       : 1
Format                                   : AVC
Format/Info                              : Advanced Video Codec
Format profile                           :
Format settings, CABAC                   : Yes
Format settings, ReFrames                : 3 frames
Codec ID                                 : avc1
Codec ID/Info                            : Advanced Video Coding
Duration                                 : 2h 3mn
Bit rate                                 : 4 150 Kbps
Width                                    : 1 280 pixels
Height                                   : 532 pixels
Display aspect ratio                     : 2.40:1
Frame rate mode                          : Variable
Frame rate                               : 23.976 (24000/1001) fps
Minimum frame rate                       : 23.810 fps
Maximum frame rate                       : 24.390 fps
Color space                              : YUV
Chroma subsampling                       : 4:2:0
Bit depth                                : 8 bits
Scan type                                : Progressive
Bits/(Pixel*Frame)                       : 0.254
Stream size                              : 3.56 GiB (94%)
Writing library                          : x264 core 148 r2721+55 e19946b t_mod_Custom [8-bit@all X86_64]
Encoding settings                        : cabac=1 / ref=3 / deblock=1:-1:-1 / analyse=0x1:0x131 / me=umh / subme=7 / psy=1 / fade_compensate=0.00 / psy_rd=1.00:0.20 / mixed_ref=1 / me_range=32 / chroma_me=1 / trellis=2 / 8x8dct=0 / cqm=0 / deadzone=21,11 / fast_pskip=0 / chroma_qp_offset=-3 / threads=17 / lookahead_threads=2 / sliced_threads=0 / nr=0 / decimate=0 / interlaced=0 / bluray_compat=0 / constrained_intra=0 / fgo=0 / bframes=2 / b_pyramid=0 / b_adapt=2 / b_bias=0 / direct=3 / weightb=1 / open_gop=0 / weightp=2 / keyint=250 / keyint_min=23 / scenecut=40 / intra_refresh=0 / rc_lookahead=60 / rc=2pass / mbtree=1 / bitrate=4150 / ratetol=1.0 / qcomp=0.65 / qpmin=0:0:0 / qpmax=69:69:69 / qpstep=4 / cplxblur=20.0 / qblur=0.5 / vbv_maxrate=10000 / vbv_bufsize=10000 / nal_hrd=none / filler=0 / ip_ratio=1.40 / aq=3:0.85 / aq-sensitivity=10.00 / aq-factor=1.00:1.00:1.00 / aq2=1:0.80 / aq2-sensitivity=13.00 / aq2-factor=1.00:1.00:1.00 / aq3=4:[0.50:0.50]:[0.50:0.50]:[0.50:0.50]:[0.50:0.50] / aq3-sensitivity=10.00 / aq3-factor=[1.00:1.00]:[1.00:1.00]:[1.00:1.00] / aq3-boundary=192:64:24
Language                                 : English
Encoded date                             : UTC 2016-11-06 21:06:44
Tagged date                              : UTC 2016-11-06 21:16:22
Color range                              : Limited
Color primaries                          : BT.709
Transfer characteristics                 : BT.709
Matrix coefficients                      : BT.709

Audio #1
ID                                       : 2
Format                                   : AAC
Format/Info                              : Advanced Audio Codec
Format profile                           : LC
Codec ID                                 : 40
Duration                                 : 2h 3mn
Source duration                          : 2h 3mn
Bit rate mode                            : Variable
Bit rate                                 : 128 Kbps
Maximum bit rate                         : 135 Kbps
Channel(s)                               : 2 channels
Channel positions                        : Front: L R
Sampling rate                            : 48.0 KHz
Frame rate                               : 46.875 fps (1024 spf)
Compression mode                         : Lossy
Stream size                              : 113 MiB (3%)
Source stream size                       : 113 MiB (3%)
Language                                 : Russian
Default                                  : Yes
Alternate group                          : 1
Encoded date                             : UTC 2016-11-06 21:06:44
Tagged date                              : UTC 2016-11-06 21:16:22

Audio #2
ID                                       : 3
Format                                   : AAC
Format/Info                              : Advanced Audio Codec
Format profile                           : LC
Codec ID                                 : 40
Duration                                 : 2h 3mn
Source duration                          : 2h 3mn
Bit rate mode                            : Variable
Bit rate                                 : 128 Kbps
Maximum bit rate                         : 135 Kbps
Channel(s)                               : 2 channels
Channel positions                        : Front: L R
Sampling rate                            : 48.0 KHz
Frame rate                               : 46.875 fps (1024 spf)
Compression mode                         : Lossy
Stream size                              : 113 MiB (3%)
Source stream size                       : 113 MiB (3%)
Language                                 : French
Default                                  : No
Alternate group                          : 1
Encoded date                             : UTC 2016-11-06 21:06:44
Tagged date                              : UTC 2016-11-06 21:16:22


Скриншоты:



Время раздачи: 24/7 (круглосуточно) (до появления первых 3-5 скачавших)
 
Не забывайте говорить Спасибо. Не уходите с раздачи!   
Торрент: Зарегистрирован [08 ноя 2016, 00:09] Для скачивания .torrent
необходима регистрация
Или скачать с помощью
MediaGet
Статус:
Проверен
 
.torrent скачан: 0 раз
Хэш: 3b61960f2c43772f1e23caa1952da5608b04a3e4
Размер: 3.78 ГБ (4 064 084 856 байт)
Стать Автором раздачи
 
 
Раздал: 100 ГБ
Скачал: 0 байт
Ратио: Seed.
Сообщения: 94127
Зарегистрирован: 09 апр 2015, 22:31


  • Похожие торренты
    Ответы
    Просмотры
    Последнее сообщение

Вернуться в Видео для мобильных устройств

Ресурс не предоставляет электронные версии произведений, а занимается лишь коллекционированием и каталогизацией ссылок, присылаемых и публикуемых на форуме нашими читателями. Если вы являетесь правообладателем какого-либо представленного материала и не желаете чтобы ссылка на него находилась в нашем каталоге, свяжитесь с нами и мы незамедлительно удалим её. Файлы для обмена на трекере предоставлены пользователями сайта, и администрация не несёт ответственности за их содержание. Просьба не заливать файлы, защищенные авторскими правами, а также файлы нелегального содержания!
cron