Mechatronic - Dystopia (2014) [FLAC|Lossless|image + .cue] <Synthpop>

 
 Статистика раздачи 
Размер: 449.8 МБ   |  Зарегистрирован: 07 ноя 2016, 19:04   |   .torrent скачан: 0 раз
Сидеров: 1  [ 0 байт/сек ]     Личеров: 0  [ 0 байт/сек ]  
  

Mechatronic - Dystopia (2014) [FLAC|Lossless|image + .cue] <Synthpop>

Сообщение explosiveone » 07 ноя 2016, 19:04

Mechatronic - Dystopia (2014)

Год: 2014
Жанр: Synthpop
Издание: Space Race Records - SRRCD009
Продолжительность: 00:52:16

Кодек: FLAC
Битрейт: Lossless
Тип рипа: image + .cue

Треклист:
01. Falling Apart 04:10
02. Endless Search For Something 03:54
03. Don't Bother To Knock 04:18
04. Dystopia 04:18
05. Niagara 04:10
06. Trapped In A Nightmare 05:02
07. Sinister 05:13
08. Beyond The Silence 04:17
09. Broken Promises 04:18
10. Vicious Words 04:20
11. This Moment 04:28
12. Dying Together Isn't Going To Solve Anything 03:55
Код: Выделить всё
Exact Audio Copy V1.0 beta 3 from 29. August 2011

Отчёт EAC об извлечении, выполненном 1. декабря 2014, 21:00

Mechatronic / Dystopia

Дисковод: _NEC    DVD_RW ND-3520AW   Adapter: 0  ID: 1

Режим чтения                 : Достоверность
Использование точного потока : Да
Отключение кэша аудио        : Да
Использование указателей C2  : Нет

Коррекция смещения при чтении                     : 48
Способность читать области Lead-in и Lead-out     : Нет
Заполнение пропущенных сэмплов тишиной            : Да
Удаление блоков с тишиной в начале и конце        : Нет
При вычислениях CRC использовались нулевые сэмплы : Да
Интерфейс                                         : Встроенный Win32-интерфейс для Win NT/2000

Выходной формат          : Пользовательский кодировщик
Выбранный битрейт        : 1024 kBit/s
Качество                 : Высокий
Добавление ID3-тега      : Нет
Утилита сжатия           : C:\Program Files\Exact Audio Copy\Flac\flac.exe
Дополнительные параметры : -6 -V -T "Date=%year%" -T "Genre=%genre%" %source%

TOC извлечённого CD

     Трек |   Старт  | Длительность | Начальный сектор | Конечный сектор
    ---------------------------------------------------------------------
       1  |  0:00.00 |    4:09.29   |           0      |      18703
       2  |  4:09.29 |    3:53.10   |       18704      |      36188
       3  |  8:02.39 |    4:17.15   |       36189      |      55478
       4  | 12:19.54 |    4:17.18   |       55479      |      74771
       5  | 16:36.72 |    4:09.54   |       74772      |      93500
       6  | 20:46.51 |    5:01.18   |       93501      |     116093
       7  | 25:47.69 |    5:12.19   |      116094      |     139512
       8  | 31:00.13 |    4:16.18   |      139513      |     158730
       9  | 35:16.31 |    4:17.20   |      158731      |     178025
      10  | 39:33.51 |    4:19.40   |      178026      |     197490
      11  | 43:53.16 |    4:27.19   |      197491      |     217534
      12  | 48:20.35 |    3:55.00   |      217535      |     235159

Характеристики диапазона извлечения и сообщения об ошибках

Выбранный диапазон

     Имя файла C:\Mechatronic - Dystopia.wav

     Пиковый уровень 98.9 %
     Скорость извлечения 2.0 X
     Качество диапазона 100.0 %
     CRC теста DBCB1EF9
     CRC копии DBCB1EF9
     Копирование... OK

Ошибок не произошло

AccurateRip: сводка

Трек  1  : извлечено точно (доверие 1)  [67ADC907]  (AR v2)
Трек  2  : извлечено точно (доверие 1)  [51BAADD7]  (AR v2)
Трек  3  : извлечено точно (доверие 1)  [D3FEB901]  (AR v2)
Трек  4  : извлечено точно (доверие 1)  [9057A003]  (AR v2)
Трек  5  : извлечено точно (доверие 1)  [CFD517D0]  (AR v2)
Трек  6  : извлечено точно (доверие 1)  [BC41FDAC]  (AR v2)
Трек  7  : извлечено точно (доверие 1)  [85BC2B20]  (AR v2)
Трек  8  : извлечено точно (доверие 1)  [BBF9D6C6]  (AR v2)
Трек  9  : извлечено точно (доверие 1)  [1DDD19C6]  (AR v2)
Трек 10  : извлечено точно (доверие 1)  [41FE7BA6]  (AR v2)
Трек 11  : извлечено точно (доверие 1)  [96F20AC3]  (AR v2)
Трек 12  : извлечено точно (доверие 1)  [9562265C]  (AR v2)

Все треки извлечены точно

Конец отчёта

---- CUETools DB Plugin V2.1.4

[CTDB TOCID: Utq4G9pMLTrnWD2NI97RiCAfGr0-] disk not present in database
Submit result: Utq4G9pMLTrnWD2NI97RiCAfGr0- has been uploaded

==== Контрольная сумма отчёта 5D0B9EEC496B5ED0007097A78DCF443848297A44D9A2F98F0E963CAF2F112D23 ====
Код: Выделить всё
REM GENRE "synth pop"
REM DATE 2014
REM DISCID AD0C3F0C
REM COMMENT "ExactAudioCopy v1.0b3"
CATALOG 8051773120565
PERFORMER "Mechatronic"
TITLE "Dystopia"
FILE "Mechatronic - Dystopia.flac" WAVE
  TRACK 01 AUDIO
    TITLE "Falling Apart"
    PERFORMER "Mechatronic"
    ISRC ITCD61400170
    INDEX 01 00:00:00
  TRACK 02 AUDIO
    TITLE "Endless Search For Something"
    PERFORMER "Mechatronic"
    ISRC ITCD61400171
    INDEX 00 04:07:29
    INDEX 01 04:09:29
  TRACK 03 AUDIO
    TITLE "Don't Bother To Knock"
    PERFORMER "Mechatronic"
    ISRC ITCD61400172
    INDEX 00 08:00:39
    INDEX 01 08:02:39
  TRACK 04 AUDIO
    TITLE "Dystopia"
    PERFORMER "Mechatronic"
    ISRC ITCD61400173
    INDEX 00 12:17:54
    INDEX 01 12:19:54
  TRACK 05 AUDIO
    TITLE "Niagara"
    PERFORMER "Mechatronic"
    ISRC ITCD61400174
    INDEX 00 16:34:72
    INDEX 01 16:36:72
  TRACK 06 AUDIO
    TITLE "Trapped In A Nightmare"
    PERFORMER "Mechatronic"
    ISRC ITCD61400175
    INDEX 00 20:44:51
    INDEX 01 20:46:51
  TRACK 07 AUDIO
    TITLE "Sinister"
    PERFORMER "Mechatronic"
    ISRC ITCD61400176
    INDEX 00 25:45:69
    INDEX 01 25:47:69
  TRACK 08 AUDIO
    TITLE "Beyond The Silence"
    PERFORMER "Mechatronic"
    ISRC ITCD61400177
    INDEX 00 30:58:13
    INDEX 01 31:00:13
  TRACK 09 AUDIO
    TITLE "Broken Promises"
    PERFORMER "Mechatronic"
    ISRC ITCD61400178
    INDEX 00 35:14:31
    INDEX 01 35:16:31
  TRACK 10 AUDIO
    TITLE "Vicious Words"
    PERFORMER "Mechatronic"
    ISRC ITCD61400179
    INDEX 00 39:31:51
    INDEX 01 39:33:51
  TRACK 11 AUDIO
    TITLE "This Moment"
    PERFORMER "Mechatronic"
    ISRC ITCD61400180
    INDEX 00 43:51:16
    INDEX 01 43:53:16
  TRACK 12 AUDIO
    TITLE "Dying Together Isn't Going To Solve Anything"
    PERFORMER "Mechatronic"
    ISRC ITCD61400181
    INDEX 00 48:18:35
    INDEX 01 48:20:35
Код: Выделить всё
-----------------------

DON'T MODIFY THIS FILE

-----------------------

PERFORMER: auCDtect Task Manager, ver. 1.6.0 RC1 build 1.6.0.1
Copyright (c) 2008-2010 y-soft. All rights reserved
[url=http://y-soft.org]http://y-soft.org[/url]

ANALYZER: auCDtect: CD records authenticity detector, version 0.8.2
Copyright (c) 2004 Oleg Berngardt. All rights reserved.
Copyright (c) 2004 Alexander Djourik. All rights reserved.

FILE: Mechatronic - Dystopia.flac
  Size: 418872661 Hash: 94E77D855991EF9E8001B9C6F124A4E3 Accuracy: -m0
  Conclusion: CDDA 100%
  Signature: FDD285958866A9428E60DC17A62EA555F1BCA6DD



Время раздачи:
Пн-Пт с 18:00 до 21:00 , Сб-Вс с 09:00 до 21:00 (до появления первых 3-5 скачавших)
 
Не забывайте говорить Спасибо. Не уходите с раздачи!   
Торрент: Зарегистрирован [07 ноя 2016, 19:04] Скачать торрент
Скачать торрент
[ Размер 18.66 КБ / Просмотров 33 ]
Статус:
Проверен
 
.torrent скачан: 0 раз
Хэш: 464b001368a743847bf47fd4308415a8cce6af07
Размер: 449.8 МБ (471 653 385 байт)
Стать Автором раздачи
 
 
Раздал: 100 ГБ
Скачал: 0 байт
Ратио: Seed.
Сообщения: 111606
Зарегистрирован: 09 апр 2015, 22:31


  • Похожие торренты
    Ответы
    Просмотры
    Последнее сообщение

Вернуться в Synthpop, New Wave (транзит Lossless)

Ресурс не предоставляет электронные версии произведений, а занимается лишь коллекционированием и каталогизацией ссылок, присылаемых и публикуемых на форуме нашими читателями. Если вы являетесь правообладателем какого-либо представленного материала и не желаете чтобы ссылка на него находилась в нашем каталоге, свяжитесь с нами и мы незамедлительно удалим её. Файлы для обмена на трекере предоставлены пользователями сайта, и администрация не несёт ответственности за их содержание. Просьба не заливать файлы, защищенные авторскими правами, а также файлы нелегального содержания!
cron