Lars Leonhard - Evanescent (2016) [FLAC|Lossless|WEB-DL|tracks] <Dub Techno>

 
 Статистика раздачи 
Размер: 199.62 МБ   |  Зарегистрирован: 06 ноя 2016, 19:39   |   .torrent скачан: 1 раз
Сидеров: 1  [ 0 байт/сек ]     Личеров: 0  [ 0 байт/сек ]  
  

Lars Leonhard - Evanescent (2016) [FLAC|Lossless|WEB-DL|tracks] <Dub Techno>

Сообщение explosiveone » 06 ноя 2016, 19:39

Lars Leonhard
Evanescent
Год: 2016
Жанр: Dub Techno
Источник: ссылка
Продолжительность: Self-released

Кодек: FLAC
Битрейт: Lossless|24Bit
Тип рипа: tracks

Треклист:


01. Demure (06:36)
02. Petrichor (06:00)
03. Labyrinthine (06:29)
Код: Выделить всё
foobar2000 1.1 / Dynamic Range Meter 1.1.1
log date: 2016-11-06 16:48:42

--------------------------------------------------------------------------------
Analyzed: Lars Leonhard / Evanescent
--------------------------------------------------------------------------------

DR         Peak         RMS     Duration Track
--------------------------------------------------------------------------------
DR6       -0.02 dB    -7.39 dB      6:36 ?-Demure
DR6       -0.02 dB    -7.49 dB      6:00 ?-Petrichor
DR4       -0.02 dB    -5.14 dB      6:29 ?-Labyrinthine
--------------------------------------------------------------------------------

Number of tracks:  3
Official DR value: DR5

Samplerate:        44100 Hz
Channels:          2
Bits per sample:   24
Bitrate:           1469 kbps
Codec:             FLAC
================================================================================
Время раздачи: 12/7
 
Не забывайте говорить Спасибо. Не уходите с раздачи!   
Торрент: Зарегистрирован [06 ноя 2016, 19:39] Скачать торрент
Скачать торрент
[ Размер 16.58 КБ / Просмотров 28 ]
Статус:
Проверен
 
.torrent скачан: 1 раз
Хэш: 6791e291224265ee1741dba32b2285c5020c70aa
Размер: 199.62 МБ (209 320 656 байт)
Стать Автором раздачи
 
 
Раздал: 100 ГБ
Скачал: 0 байт
Ратио: Seed.
Сообщения: 108807
Зарегистрирован: 09 апр 2015, 22:31


  • Похожие торренты
    Ответы
    Просмотры
    Последнее сообщение

Вернуться в House, Techno, Electro, Minimal (транзит Lossless)

Ресурс не предоставляет электронные версии произведений, а занимается лишь коллекционированием и каталогизацией ссылок, присылаемых и публикуемых на форуме нашими читателями. Если вы являетесь правообладателем какого-либо представленного материала и не желаете чтобы ссылка на него находилась в нашем каталоге, свяжитесь с нами и мы незамедлительно удалим её. Файлы для обмена на трекере предоставлены пользователями сайта, и администрация не несёт ответственности за их содержание. Просьба не заливать файлы, защищенные авторскими правами, а также файлы нелегального содержания!
cron