Коралловый риф 3D: Подводный мир Египта / Adventure Coral Reef 3D – Under the Sea of Egypt (2012) BDRip 3D [H.264/1080p][вертикальная анаморфная стереопара]

 
 Статистика раздачи 
Размер: 7.05 ГБ   |  Зарегистрирован: 06 ноя 2016, 06:58   |   .torrent скачан: 2 раз
Сидеров: 1  [ 0 байт/сек ]     Личеров: 0  [ 0 байт/сек ]  
  

Коралловый риф 3D: Подводный мир Египта / Adventure Coral Reef 3D – Under the Sea of Egypt (2012) BDRip 3D [H.264/1080p][вертикальная анаморфная стереопара]

Сообщение explosiveone » 06 ноя 2016, 06:58

Коралловый риф 3D: Подводный мир Египта / Adventure Coral Reef 3D – Under the Sea of Egypt (2012) BDRip 3D

Жанр: Видовой, Документальный
Страна: Германия
Режиссер: Питер Лорд

Описание:
Подводный мир Красного моря в Египте не просто красив – он сказочно красив. Кораллы, гигантские скаты, миллионы рыб самой разнообразной раскраски, затонувшие корабли. Этот мир вас будет тянуть к себе с такой силой, что вы будите возвращаться туда снова и снова, чтобы испытать тот неописуемый восторг, радость первых открытий, ощущения умиротворенности и просто счастья. Совершите фантастическое путешествие не выходя из дома.

Продолжительность: 00:50:40
Качество видео: BDRip
Перевод: дублированный
Язык субтитров: русские
Вид субтитров: вшитые, отключаемые

Видео: AVC/H.264, 1920х1080, ~18.2 Mbps
Аудио #1: AC3, 6 ch, 640 kbps, CBR - русский
Аудио #2: AC3, 6 ch, 640 kbps, CBR - английский
Код: Выделить всё
Format                                   : Matroska
Format version                           : Version 4 / Version 2
File size                                : 7.05 GiB
Duration                                 : 50mn 40s
Overall bit rate mode                    : Variable
Overall bit rate                         : 19.9 Mbps
Movie name                               : ADVENTURE_CORAL_REEF_3D.Title4
Encoded date                             : UTC 2016-11-05 20:12:06
Writing application                      : mkvmerge v8.3.0 ('Over the Horizon') 64bit
Writing library                          : libebml v1.3.1 + libmatroska v1.4.2

Video
ID                                       : 1
Format                                   : AVC
Format/Info                              : Advanced Video Codec
Format profile                           :
Format settings, CABAC                   : Yes
Format settings, GOP                     : M=3, N=24
Codec ID                                 : V_MPEG4/ISO/AVC
Duration                                 : 50mn 40s
Bit rate mode                            : Variable
Bit rate                                 : 18.2 Mbps
Width                                    : 1 920 pixels
Height                                   : 1 080 pixels
Display aspect ratio                     : 16:9
Frame rate mode                          : Constant
Frame rate                               : 23.976 fps
Color space                              : YUV
Chroma subsampling                       : 4:2:0
Bit depth                                : 8 bits
Scan type                                : Progressive
Bits/(Pixel*Frame)                       : 0.367
Stream size                              : 6.45 GiB (92%)
Default                                  : Yes
Forced                                   : No
Color primaries                          : BT.709
Transfer characteristics                 : BT.709
Matrix coefficients                      : BT.709

Audio #1
ID                                       : 2
Format                                   : AC-3
Format/Info                              : Audio Coding 3
Mode extension                           : CM (complete main)
Format settings, Endianness              : Big
Codec ID                                 : A_AC3
Duration                                 : 50mn 40s
Bit rate mode                            : Constant
Bit rate                                 : 640 Kbps
Channel(s)                               : 6 channels
Channel positions                        : Front: L C R, Side: L R, LFE
Sampling rate                            : 48.0 KHz
Bit depth                                : 16 bits
Compression mode                         : Lossy
Stream size                              : 232 MiB (3%)
Language                                 : Russian
Default                                  : Yes
Forced                                   : No

Audio #2
ID                                       : 3
Format                                   : AC-3
Format/Info                              : Audio Coding 3
Mode extension                           : CM (complete main)
Format settings, Endianness              : Big
Codec ID                                 : A_AC3
Duration                                 : 50mn 40s
Bit rate mode                            : Constant
Bit rate                                 : 640 Kbps
Channel(s)                               : 6 channels
Channel positions                        : Front: L C R, Side: L R, LFE
Sampling rate                            : 48.0 KHz
Bit depth                                : 16 bits
Compression mode                         : Lossy
Stream size                              : 232 MiB (3%)
Language                                 : English
Default                                  : No
Forced                                   : No

Text
ID                                       : 4
Format                                   : PGS
Muxing mode                              : zlib
Codec ID                                 : S_HDMV/PGS
Language                                 : Russian
Default                                  : No
Forced                                   : No

Скриншоты:



Подводный мир Египта на нашем трекере
Время раздачи: 24/7 (до появления первых 3-5 скачавших)
 
Не забывайте говорить Спасибо. Не уходите с раздачи!   
Торрент: Зарегистрирован [06 ноя 2016, 06:58] Для скачивания .torrent
необходима регистрация
Или скачать с помощью
MediaGet
Статус:
Проверен
 
.torrent скачан: 2 раз
Хэш: 396de8c12f556de0c345e1b61bbdeacd2dad8ab6
Размер: 7.05 ГБ (7 567 871 496 байт)
Стать Автором раздачи
 
 
Раздал: 100 ГБ
Скачал: 0 байт
Ратио: Seed.
Сообщения: 82289
Зарегистрирован: 09 апр 2015, 22:31


  • Похожие торренты
    Ответы
    Просмотры
    Последнее сообщение

Вернуться в Флора и фауна (видео)

Кто сейчас на конференции

Сейчас эту тему просматривают: нет зарегистрированных пользователей и гости: 1

Ресурс не предоставляет электронные версии произведений, а занимается лишь коллекционированием и каталогизацией ссылок, присылаемых и публикуемых на форуме нашими читателями. Если вы являетесь правообладателем какого-либо представленного материала и не желаете чтобы ссылка на него находилась в нашем каталоге, свяжитесь с нами и мы незамедлительно удалим её. Файлы для обмена на трекере предоставлены пользователями сайта, и администрация не несёт ответственности за их содержание. Просьба не заливать файлы, защищенные авторскими правами, а также файлы нелегального содержания!