Горбатые киты / Humpback Whales (2015) BDRip 3D [H.264/1080p][вертикальная анаморфная стереопара]

 
 Статистика раздачи 
Размер: 4.48 ГБ   |  Зарегистрирован: 05 ноя 2016, 18:21   |   .torrent скачан: 1 раз
Сидеров: 1  [ 0 байт/сек ]     Личеров: 0  [ 0 байт/сек ]  
  

Горбатые киты / Humpback Whales (2015) BDRip 3D [H.264/1080p][вертикальная анаморфная стереопара]

Сообщение explosiveone » 05 ноя 2016, 18:21

Горбатые киты / Humpback Whales (2015) BDRip 3D

Телекомпания: Pacific Life
Жанр: Документальный, Видовой

Режиссер: Грег МакГилври
Участники: Юэн МакГрегор (Рассказчик)

Описание:
Прокомментированное дважды лауреатом премии "Золотой Глобус" Эваном МакГрегором, это - экстраординарное путешествие в сказочный мир одного из самых впечатляющих животных планеты. Съемки велись в красивейших местах Аляски, Гавайев и отдаленных берегов Тонги; во время этого приключения вы узнаете, как общаются киты между собой, как они поют, питаются, играют и заботятся о своем потомстве. Впервые съемки произведены на 3D-камеры IMAX. Присоединяйтесь к команде путешественников и откройте секреты горбатых гигантов: узнайте, почему их называют лучшими акробатами среди всех китов, почему они поют свои песни, и зачем эти 50-тонные киты мигрируют за 15 тысяч миль каждый год.

Продолжительность: 00:39:13
Качество видео: BDRip
Перевод: Отсутствует
Язык субтитров: английский
Вид субтитров: вшитые, отключаемые

Видео: AVC/H.264, 1920х1080, ~15.4 Mbps
Аудио: AC3, 6 ch, 640 kbps, CBR - английский
Код: Выделить всё
Format                                   : Matroska
Format version                           : Version 4 / Version 2
File size                                : 4.48 GiB
Duration                                 : 39mn 12s
Overall bit rate mode                    : Variable
Overall bit rate                         : 16.3 Mbps
Movie name                               : HUMPBACK_WHALES_3D.Title407
Encoded date                             : UTC 2016-11-05 14:47:57
Writing application                      : mkvmerge v8.3.0 ('Over the Horizon') 64bit
Writing library                          : libebml v1.3.1 + libmatroska v1.4.2

Video
ID                                       : 1
Format                                   : AVC
Format/Info                              : Advanced Video Codec
Format profile                           :
Format settings, CABAC                   : Yes
Format settings, GOP                     : M=3, N=24
Codec ID                                 : V_MPEG4/ISO/AVC
Duration                                 : 39mn 12s
Bit rate mode                            : Variable
Bit rate                                 : 15.4 Mbps
Width                                    : 1 920 pixels
Height                                   : 1 080 pixels
Display aspect ratio                     : 16:9
Frame rate mode                          : Constant
Frame rate                               : 23.976 fps
Color space                              : YUV
Chroma subsampling                       : 4:2:0
Bit depth                                : 8 bits
Scan type                                : Progressive
Bits/(Pixel*Frame)                       : 0.309
Stream size                              : 4.21 GiB (94%)
Default                                  : Yes
Forced                                   : No
Color primaries                          : BT.709
Transfer characteristics                 : BT.709
Matrix coefficients                      : BT.709

Audio
ID                                       : 2
Format                                   : AC-3
Format/Info                              : Audio Coding 3
Mode extension                           : CM (complete main)
Format settings, Endianness              : Big
Codec ID                                 : A_AC3
Duration                                 : 39mn 12s
Bit rate mode                            : Constant
Bit rate                                 : 640 Kbps
Channel(s)                               : 6 channels
Channel positions                        : Front: L C R, Side: L R, LFE
Sampling rate                            : 48.0 KHz
Bit depth                                : 16 bits
Compression mode                         : Lossy
Stream size                              : 180 MiB (4%)
Language                                 : English
Default                                  : Yes
Forced                                   : No

Text
ID                                       : 3
Format                                   : PGS
Muxing mode                              : zlib
Codec ID                                 : S_HDMV/PGS
Codec ID/Info                            : The same subtitle format used on BDs/HD-DVDs
Language                                 : English
Default                                  : No
Forced                                   : No

Скриншоты:



Горбатые киты на нашем трекере
Время раздачи: 24/7 (до появления первых 3-5 скачавших)
 
Не забывайте говорить Спасибо. Не уходите с раздачи!   
Торрент: Зарегистрирован [05 ноя 2016, 18:21] Для скачивания .torrent
необходима регистрация
Или скачать с помощью
MediaGet
Статус:
Проверен
 
.torrent скачан: 1 раз
Хэш: 3ecd85527c4d44f396998c3fe7e91ced26f4b76c
Размер: 4.48 ГБ (4 805 259 557 байт)
Стать Автором раздачи
 
 
Раздал: 100 ГБ
Скачал: 0 байт
Ратио: Seed.
Сообщения: 90065
Зарегистрирован: 09 апр 2015, 22:31


Вернуться в Флора и фауна (видео)

Ресурс не предоставляет электронные версии произведений, а занимается лишь коллекционированием и каталогизацией ссылок, присылаемых и публикуемых на форуме нашими читателями. Если вы являетесь правообладателем какого-либо представленного материала и не желаете чтобы ссылка на него находилась в нашем каталоге, свяжитесь с нами и мы незамедлительно удалим её. Файлы для обмена на трекере предоставлены пользователями сайта, и администрация не несёт ответственности за их содержание. Просьба не заливать файлы, защищенные авторскими правами, а также файлы нелегального содержания!
cron