AQUA - Видео Коллекция / AQUA - The Video Collection (2000) DVDRip

 
 Статистика раздачи 
Размер: 790.17 МБ   |  Зарегистрирован: 05 ноя 2016, 06:42   |   .torrent скачан: 0 раз
Сидеров: 1  [ 0 байт/сек ]     Личеров: 0  [ 0 байт/сек ]  
  

AQUA - Видео Коллекция / AQUA - The Video Collection (2000) DVDRip

Сообщение explosiveone » 05 ноя 2016, 06:42

AQUA - Видео Коллекция / AQUA - The Video Collection (2000) DVDRip

Производство: Universal Music Company (Дания)
Жанр: Музыкальный

Режиссер: Aqua
Актеры: Лене Нюстрём Растед, Рене Диф, Сёрен Растед, Клаус Норрен

Описание:
В данный сборник вошли десять видео-клипов группы "AQUA" - скандинавского музыкального дэнс-поп-коллектива, состоящего из четырёх участников: девушки-норвежки и трёх датчан. Группа получила известность в 1990-е годы и стала ярким представителем жанра евроденс и наиболее успешным музыкальным коллективом в Дании в конце XX века.

Продолжительность: 00:41:34
Качество видео: DVDRip
Перевод: Отсутствует
Язык: Английский

Видео: Xvid, 640x464, ~2450 Kbps
Аудио: AC3, 2 ch, 192 Kbps, CBR
1. Roses Are Red
2. Barbie Girl
3. Doctor Jones
4. Lollipop / Candyman
5. My Oh My
6. Goodmorning Sunshine
7. Turn Back Time
8. Cartoon Heroes
9. Around the World
10. Bumble Bees
Код: Выделить всё
Общее
Полное имя                               : X:\Музыкальные клипы, концерты\AQUA - The video collection\01 - Roses Are Red.avi
Формат                                   : AVI
Формат/Информация                        : Audio Video Interleave
Размер файла                             : 76,6 Мбайт
Продолжительность                        : 4 м. 2 с.
Общий поток                              : 2652 Кбит/сек
Программа кодирования                    : VirtualDubModRus 1.5.10.2 (build 2542/release)
Библиотека кодирования                   : VirtualDubMod build 2542/release

Видео
Идентификатор                            : 0
Формат                                   : MPEG-4 Visual
Профиль формата                          : Advanced Simple@L5
Параметр BVOP формата                    : 2
Параметр QPel формата                    : Нет
Параметр GMC формата                     : Без точки перехода
Параметр матрицы формата                 : Default (H.263)
Режим смешивания                         : Сжатый битовый поток
Идентификатор кодека                     : XVID
Идентификатор кодека/Подсказка           : XviD
Продолжительность                        : 4 м. 2 с.
Битрейт                                  : 2450 Кбит/сек
Ширина                                   : 640 пикселей
Высота                                   : 464 пикселя
Соотношение сторон                       : 1,379
Частота кадров                           : 23,976 (23976/1000) кадра/сек
Цветовое пространство                    : YUV
Субдискретизация насыщенности            : 4:2:0
Битовая глубина                          : 8 бит
Тип развёртки                            : Прогрессивная
Метод сжатия                             : С потерями
Бит/(Пиксели*Кадры)                      : 0.344
Размер потока                            : 70,8 Мбайт (92%)
Библиотека кодирования                   : XviD 73

Аудио
Идентификатор                            : 1
Формат                                   : AC-3
Формат/Информация                        : Audio Coding 3
Расширение режима                        : CM (complete main)
Параметр Endianness формата              : Big
Идентификатор кодека                     : 2000
Продолжительность                        : 4 м. 2 с.
Вид битрейта                             : Постоянный
Битрейт                                  : 192 Кбит/сек
Каналы                                   : 2 канала
Расположение каналов                     : Front: L R
Частота                                  : 48,0 КГц
Частота кадров                           : 31,250 кадров/сек (1536 spf)
Метод сжатия                             : С потерями
Задержка видео                           : 12 мс.
Размер потока                            : 5,55 Мбайт (7%)
Выравнивание                             : Разделение по промежуткам
Продолжительность промежутка             : 42  мс. (1,00 видеокадр)
Время предзагрузки промежутка            : 500  мс.

Скриншоты:

с


Время раздачи: сб-вс 12-24
 
Не забывайте говорить Спасибо. Не уходите с раздачи!   
Торрент: Зарегистрирован [05 ноя 2016, 06:42] Скачать торрент
Скачать торрент
[ Размер 16.84 КБ / Просмотров 33 ]
Статус:
Проверен
 
.torrent скачан: 0 раз
Хэш: 16c8b6bc5b4825bf03ca96d3b94ba8d777fb7e78
Размер: 790.17 МБ (828 549 120 байт)
Стать Автором раздачи
 
 
Раздал: 100 ГБ
Скачал: 0 байт
Ратио: Seed.
Сообщения: 108650
Зарегистрирован: 09 апр 2015, 22:31


  • Похожие торренты
    Ответы
    Просмотры
    Последнее сообщение

Вернуться в Музыкальные клипы (транзит)

Ресурс не предоставляет электронные версии произведений, а занимается лишь коллекционированием и каталогизацией ссылок, присылаемых и публикуемых на форуме нашими читателями. Если вы являетесь правообладателем какого-либо представленного материала и не желаете чтобы ссылка на него находилась в нашем каталоге, свяжитесь с нами и мы незамедлительно удалим её. Файлы для обмена на трекере предоставлены пользователями сайта, и администрация не несёт ответственности за их содержание. Просьба не заливать файлы, защищенные авторскими правами, а также файлы нелегального содержания!
cron