Полицейский из Беверли-Хиллз: Трилогия. / Beverly Hills Cop. Master Collection. (1984/1987/1994) HDRip [H.264] [MP4|1024x576|1024x436]

 
 Статистика раздачи 
Размер: 5.37 ГБ   |  Зарегистрирован: 04 ноя 2016, 18:14   |   .torrent скачан: 0 раз
Сидеров: 1  [ 0 байт/сек ]     Личеров: 0  [ 0 байт/сек ]  
  

Полицейский из Беверли-Хиллз: Трилогия. / Beverly Hills Cop. Master Collection. (1984/1987/1994) HDRip [H.264] [MP4|1024x576|1024x436]

Сообщение explosiveone » 04 ноя 2016, 18:14

Полицейский из Беверли-Хиллз: Трилогия. / Beverly Hills Cop. Master Collection. (1984/1987/1994)



Производство:
США / Paramount Pictures, Don Simpson/Jerry Bruckheimer Films, Eddie Murphy Productions
Жанр: Боевик, Комедия, Криминал

Режиссер: Мартин Брест, Тони Скотт, Джон Лэндис
Актеры: Эдди Мёрфи, Джадж Райнхолд, Джон Эштон, Лиза Айлбакер, Ронни Кокс, Стивен Беркофф, Джеймс Руссо, Джонатан Бэнкс, Стивен Эллиот, Гилберт Р. Хилла, Юрген Прохнов, Ронни Кокс, Бриджит Нильсен, Аллен Гарфилд, Дин Стокуэлл, Пол Райзер, Гилберт Р. Хилл, Гектор Элизондо, Тереза Рэндл, Джон Тенни, Джои Траволта, Юджин Колльер, Джимми Ортега, Усон Илам, Рэй Лайкинс

Описание:
Чернокожий детройтский полицейский с помощью своего удивительного дара находить выход из любого положения стоит на страже порядка и закона. Множество драк, перестрелок, погонь, хорошей музыки и отменного юмора.

Релиз от: NNMClub
Продолжительность: 01:45:04 | 1:42:58 | 1:44:14
Перевод: Многоголосый закадровый - (Киномания)
Вид субтитров: Вшитые отключаемые
Язык субтитров: Русский, Английский
Качество видео: HDRip

Видео: AVC/H.264 (Base@L3.1), 1024x576 (16:9) | 1024x436 (2.35:1), 2200 Кбит/сек
Аудио #1: AAC, 2 канала, 128 Кбит/сек - русский (многоголосый закадровый)
Аудио #2: AAC, 2 канала, 128 Кбит/сек - английский

Полицейский из Беверли-Хиллз / Beverly Hills Cop (1984) HDRip

«In Detroit a cop learns to take the heat. In L.A. he learns to keep his cool»

Производство: США / Paramount Pictures, Eddie Murphy Productions
Жанр: Боевик, Комедия, Криминал

Режиссер: Мартин Брест
Актеры: Эдди Мёрфи, Джадж Райнхолд, Джон Эштон, Лиза Айлбакер, Ронни Кокс, Стивен Беркофф, Джеймс Руссо, Джонатан Бэнкс, Стивен Эллиот, Гилберт Р. Хилла

Описание:
Чернокожий детройтский полицейский встречается со школьным другом, которого долго не видел, и вдруг того убивают. В поисках убийц полицейский едет в Лос-Анджелес.
Здесь он натыкается на глухое и упорное неприятие залетного выскочки местными полицейскими, но с помощью своего удивительного дара находить выход из любого положения, Фоули заручается симпатией и, соответственно, реальной поддержкой двух из них. Множество драк, перестрелок, погонь, хорошей музыки и отменного юмора.


Возраст: 16+ (зрителям, достигшим 16 лет)
Рейтинг MPAA: R (лицам до 17 лет обязательно присутствие взрослого)

Релиз от: NNMClub
Продолжительноcть: 01:45:04
Качество видео: HDRip
Перевод: Многоголосый закадровый - (Киномания)
Вид субтитров: Вшитые отключаемые
Язык субтитров: Русский, Английский

Видео: AVC/H.264 (Base@L3.1), 1024x576 (16:9), 2200 Кбит/сек
Аудио #1: AAC, 2 канала, 128 Кбит/сек - русский (многоголосый закадровый)
Аудио #2: AAC, 2 канала, 128 Кбит/сек - английский
Код:
General
Complete name                            : C:\DGI\Beverly.Hills.Cop.Collection.(1984-1994).576p.h264.NNMclub\Beverly.Hills.Cop.1984.576p.HDRip.AAC.h264.NNMclub.mp4
Format                                   : MPEG-4
Format profile                           : Base Media / Version 2
Codec ID                                 : mp42 (mp42/isom)
File size                                : 1.81 GiB
Duration                                 : 1h 45mn
Overall bit rate mode                    : Variable
Overall bit rate                         : 2 463 Kbps
Movie name                               : Beverly Hills Cop
Performer                                : Daniel Petrie Jr., Danilo Bach, Martin Brest, Sam Simon, Vincent Patrick, William D. Wittliff
Director                                 : Daniel Petrie Jr. / Danilo Bach / Martin Brest / Sam Simon / Vincent Patrick / William D. Wittliff
Actor                                    : Eddie Murphy / John Ashton / Judge Reinhold / Ronny Cox / Steven Berkoff / Stephen Elliott / Gil Hill / Lisa Eilbacher / Art Kimbro / Jonathan Banks
Screenplay by                            : Daniel Petrie Jr.
Producer                                 : Jerry Bruckheimer / Don Simpson
Genre                                    : Comedy
ContentType                              : Short Film
Description                              : The heat is on in this fast paced action-comedy starring Eddie Murphy as Axel Foley, a street smart Detroit cop tracking down his best friend's killer in Beverly Hills. Axel quickly learns that his wild style doesn't fit in with the Beverly Hills Police Department, which assigns two officers (Judge Reinhold and John Ashton) to make sure things don't get out of hand. Dragging the stuffy detectives along for the ride, Axel smashes through a huge culture clash in his hilarious, high-speed pursuit of justice. Featuring cameos by Paul Reiser, Bronson Pinchot and Damon Wayans, Beverly Hills Cop is an exhilarating sidesplitting adventure!
Recorded date                            : 1984-12-01
Encoded date                             : UTC 2016-11-04 10:08:24
Tagged date                              : UTC 2016-11-04 11:03:18
Copyright                                : © 1984 Paramount Pictures
Cover                                    : Yes
Rating                                   : None
LongDescription                          : The heat is on in this fast paced action-comedy starring Eddie Murphy as Axel Foley, a street smart Detroit cop tracking down his best friend's killer in Beverly Hills. Axel quickly learns that his wild style doesn't fit in with the Beverly Hills Police Department, which assigns two officers (Judge Reinhold and John Ashton) to make sure things don't get out of hand. Dragging the stuffy detectives along for the ride, Axel smashes through a huge culture clash in his hilarious, high-speed pursuit of justice. Featuring cameos by Paul Reiser, Bronson Pinchot and Damon Wayans, Beverly Hills Cop is an exhilarating sidesplitting adventure!
AppleStoreCountry                        : United States
AppleStoreCatalogID                      : 292813166
ContentRating                            : mpaa|R|400|

Video
ID                                       : 1
Format                                   : AVC
Format/Info                              : Advanced Video Codec
Format profile                           :
Format settings, CABAC                   : Yes
Format settings, ReFrames                : 3 frames
Codec ID                                 : avc1
Codec ID/Info                            : Advanced Video Coding
Duration                                 : 1h 45mn
Bit rate                                 : 2 200 Kbps
Width                                    : 1 024 pixels
Height                                   : 576 pixels
Display aspect ratio                     : 16:9
Frame rate mode                          : Variable
Frame rate                               : 23.976 (24000/1001) fps
Minimum frame rate                       : 23.810 fps
Maximum frame rate                       : 24.390 fps
Color space                              : YUV
Chroma subsampling                       : 4:2:0
Bit depth                                : 8 bits
Scan type                                : Progressive
Bits/(Pixel*Frame)                       : 0.156
Stream size                              : 1.61 GiB (89%)
Writing library                          : x264 core 148 r2721+55 e19946b t_mod_Custom [8-bit@all X86_64]
Encoding settings                        : cabac=1 / ref=3 / deblock=1:-3:-3 / analyse=0x1:0x111 / me=umh / subme=7 / psy=1 / fade_compensate=0.00 / psy_rd=1.00:0.00 / mixed_ref=1 / me_range=32 / chroma_me=1 / trellis=2 / 8x8dct=0 / cqm=0 / deadzone=21,11 / fast_pskip=0 / chroma_qp_offset=-2 / threads=12 / lookahead_threads=2 / sliced_threads=0 / nr=0 / decimate=0 / interlaced=0 / bluray_compat=0 / constrained_intra=0 / fgo=0 / bframes=2 / b_pyramid=1 / b_adapt=2 / b_bias=0 / direct=3 / weightb=1 / open_gop=0 / weightp=2 / keyint=240 / keyint_min=23 / scenecut=40 / intra_refresh=0 / rc_lookahead=50 / rc=2pass / mbtree=1 / bitrate=2200 / ratetol=1.0 / qcomp=0.60 / qpmin=0:0:0 / qpmax=69:69:69 / qpstep=4 / cplxblur=20.0 / qblur=0.5 / vbv_maxrate=10000 / vbv_bufsize=10000 / nal_hrd=none / filler=0 / ip_ratio=1.40 / aq=3:1.00 / aq-sensitivity=10.00 / aq-factor=1.00:1.00:1.00 / aq2=1:0.80 / aq2-sensitivity=15.00 / aq2-factor=1.00:1.00:1.00 / aq3=4:[0.50:0.50]:[0.50:0.50]:[0.50:0.50]:[0.50:0.50] / aq3-sensitivity=10.00 / aq3-factor=[1.00:1.00]:[1.00:1.00]:[1.00:1.00] / aq3-boundary=192:64:24
Encoded date                             : UTC 2016-11-04 10:08:24
Tagged date                              : UTC 2016-11-04 10:20:38
Color range                              : Limited
Color primaries                          : BT.709
Transfer characteristics                 : BT.709
Matrix coefficients                      : BT.709
Menus                                    : 6

Audio #1
ID                                       : 2
Format                                   : AAC
Format/Info                              : Advanced Audio Codec
Format profile                           : LC
Codec ID                                 : 40
Duration                                 : 1h 45mn
Source duration                          : 1h 45mn
Bit rate mode                            : Variable
Bit rate                                 : 128 Kbps
Maximum bit rate                         : 135 Kbps
Channel(s)                               : 2 channels
Channel positions                        : Front: L R
Sampling rate                            : 48.0 KHz
Frame rate                               : 46.875 fps (1024 spf)
Compression mode                         : Lossy
Stream size                              : 96.2 MiB (5%)
Source stream size                       : 96.2 MiB (5%)
Language                                 : Russian
Default                                  : Yes
Alternate group                          : 1
Encoded date                             : UTC 2016-11-04 10:08:24
Tagged date                              : UTC 2016-11-04 10:20:38

Audio #2
ID                                       : 3
Format                                   : AAC
Format/Info                              : Advanced Audio Codec
Format profile                           : LC
Codec ID                                 : 40
Duration                                 : 1h 45mn
Source duration                          : 1h 45mn
Bit rate mode                            : Variable
Bit rate                                 : 128 Kbps
Maximum bit rate                         : 135 Kbps
Channel(s)                               : 2 channels
Channel positions                        : Front: L R
Sampling rate                            : 48.0 KHz
Frame rate                               : 46.875 fps (1024 spf)
Compression mode                         : Lossy
Stream size                              : 96.2 MiB (5%)
Source stream size                       : 96.2 MiB (5%)
Language                                 : English
Default                                  : No
Alternate group                          : 1
Encoded date                             : UTC 2016-11-04 10:08:24
Tagged date                              : UTC 2016-11-04 10:20:38

Text #1
ID                                       : 4
Format                                   : Timed Text
Muxing mode                              : sbtl
Codec ID                                 : tx3g
Duration                                 : 1h 40mn
Bit rate mode                            : Variable
Bit rate                                 : 93 bps
Stream size                              : 68.7 KiB (0%)
Language                                 : Russian
Default                                  : Yes
Forced                                   : No
Alternate group                          : 2
Encoded date                             : UTC 2016-11-04 10:08:24
Tagged date                              : UTC 2016-11-04 10:20:38

Text #2
ID                                       : 5
Format                                   : Timed Text
Muxing mode                              : sbtl
Codec ID                                 : tx3g
Duration                                 : 1h 40mn
Bit rate mode                            : Variable
Bit rate                                 : 78 bps
Stream size                              : 57.4 KiB (0%)
Language                                 : English
Default                                  : No
Forced                                   : No
Alternate group                          : 2
Encoded date                             : UTC 2016-11-04 10:08:24
Tagged date                              : UTC 2016-11-04 10:20:38

Menu
ID                                       : 6
Codec ID                                 : text
Duration                                 : 1h 45mn
Language                                 : English
Encoded date                             : UTC 2016-11-04 10:20:38
Tagged date                              : UTC 2016-11-04 10:20:38
Bit rate mode                            : CBR
Menu For                                 : 1
00:00:00.000                             : 00:00:00.000
00:10:58.491                             : 00:10:58.491
00:19:31.670                             : 00:19:31.670
00:36:03.578                             : 00:36:03.578
00:45:07.161                             : 00:45:07.162
00:49:28.840                             : 00:49:28.840
00:58:39.599                             : 00:58:39.599
01:13:16.100                             : 01:13:16.100
01:23:22.664                             : 01:23:22.664
01:38:28.193                             : 01:38:28.193
01:41:04.433                             : 01:41:04.433


Скриншоты:


Полицейский из Беверли-Хиллз 2 / Beverly Hills Cop II (1987) HDRip

«The Heat's Back On!»

#77Производство: США / Paramount Pictures, Don Simpson/Jerry Bruckheimer Films, Eddie Murphy Productions
Жанр: Боевик, Комедия

Режиссер: Тони Скотт
Актеры: Эдди Мёрфи, Джадж Райнхолд, Джон Эштон, Юрген Прохнов, Ронни Кокс, Бриджит Нильсен, Аллен Гарфилд, Дин Стокуэлл, Пол Райзер, Гилберт Р. Хилл

Описание:
Продолжение подвигов по поимке преступников веселого и находчивого полицейского Акселя. Сексапильная блондинка вместе с группой гангстеров грабит ювелирный магазин. Но неутомимый Аксель тут как тут, на страже порядка и закона.
Дальше, как и положено в полицейской комедии, динамичный сюжет раскручивается все в более и более быстром темпе, погони и перестрелки следуют одна за другой, лихой мордобой сменяют смешные, хотя порой и грубоватые шутки.


Возраст: 16+ (зрителям, достигшим 16 лет)
Рейтинг MPAA: R (лицам до 17 лет обязательно присутствие взрослого)

Релиз от: NNMClub
Продолжительноcть: 1:42:58
Качество видео: HDRip
Перевод: Многоголосый закадровый - (Киномания)
Вид субтитров: Вшитые отключаемые
Язык субтитров: Русский, Английский

Видео: AVC/H.264 (Base@L3.1), 1024x436 (2.35:1), 2200 Кбит/сек
Аудио #1: AAC, 2 канала, 128 Кбит/сек - русский (многоголосый закадровый)
Аудио #2: AAC, 2 канала, 128 Кбит/сек - английский
Код:
General
Complete name                            : C:\DGI\Beverly.Hills.Cop.Collection.(1984-1994).576p.h264.NNMclub\Beverly.Hills.Cop.II.1987.576p.HDRip.AAC.h264.NNMclub.mp4
Format                                   : MPEG-4
Format profile                           : Base Media / Version 2
Codec ID                                 : mp42 (mp42/isom)
File size                                : 1.77 GiB
Duration                                 : 1h 42mn
Overall bit rate mode                    : Variable
Overall bit rate                         : 2 463 Kbps
Movie name                               : Beverly Hills Cop II
Performer                                : Tony Scott
Director                                 : Tony Scott
Actor                                    : Eddie Murphy / Judge Reinhold / Jürgen Prochnow / Ronny Cox / John Ashton / Brigitte Nielsen / Allen Garfield / Dean Stockwell / Paul Reiser / Gil Hill
Screenplay by                            : Robert D. Wachs
Producer                                 : Jerry Bruckheimer / Don Simpson / Richard Tienken
Genre                                    : Comedy
ContentType                              : Short Film
Description                              : The heat's back on! And Eddie Murphy is cool as ever in this sizzling, smash-hit sequel to Beverly Hills Cop.  Axel Foley (Murphy) is back-back where he doesn't belong! He's going "deep, deep, deep undercover" into the chic wilds of Southern California, unleashing his arsenal of blazing gunfire and rapid-fire gags against a gang of international munitions smugglers.  Back, too, are Judge Reinhold and John Ashton as Murphy's crime-busting sidekicks. And Top Gun's director Tony Scott keeps the pace fast, furious and funny.
Recorded date                            : 2002-01-29
Encoded date                             : UTC 2016-11-04 10:11:06
Tagged date                              : UTC 2016-11-04 11:03:14
Copyright                                : © 1987 Paramount Pictures.
Cover                                    : Yes
Rating                                   : None
LongDescription                          : The heat's back on! And Eddie Murphy is cool as ever in this sizzling, smash-hit sequel to Beverly Hills Cop.  Axel Foley (Murphy) is back-back where he doesn't belong! He's going "deep, deep, deep undercover" into the chic wilds of Southern California, unleashing his arsenal of blazing gunfire and rapid-fire gags against a gang of international munitions smugglers.  Back, too, are Judge Reinhold and John Ashton as Murphy's crime-busting sidekicks. And Top Gun's director Tony Scott keeps the pace fast, furious and funny.
AppleStoreCountry                        : United States
AppleStoreCatalogID                      : 218729913
ContentRating                            : mpaa|R|400|

Video
ID                                       : 1
Format                                   : AVC
Format/Info                              : Advanced Video Codec
Format profile                           :
Format settings, CABAC                   : Yes
Format settings, ReFrames                : 3 frames
Codec ID                                 : avc1
Codec ID/Info                            : Advanced Video Coding
Duration                                 : 1h 42mn
Bit rate                                 : 2 200 Kbps
Width                                    : 1 024 pixels
Height                                   : 436 pixels
Display aspect ratio                     : 2.35:1
Frame rate mode                          : Variable
Frame rate                               : 23.976 (24000/1001) fps
Minimum frame rate                       : 23.810 fps
Maximum frame rate                       : 24.390 fps
Color space                              : YUV
Chroma subsampling                       : 4:2:0
Bit depth                                : 8 bits
Scan type                                : Progressive
Bits/(Pixel*Frame)                       : 0.206
Stream size                              : 1.58 GiB (89%)
Writing library                          : x264 core 148 r2721+55 e19946b t_mod_Custom [8-bit@all X86_64]
Encoding settings                        : cabac=1 / ref=3 / deblock=1:-3:-3 / analyse=0x1:0x111 / me=umh / subme=7 / psy=1 / fade_compensate=0.00 / psy_rd=1.00:0.00 / mixed_ref=1 / me_range=32 / chroma_me=1 / trellis=2 / 8x8dct=0 / cqm=0 / deadzone=21,11 / fast_pskip=0 / chroma_qp_offset=-2 / threads=12 / lookahead_threads=2 / sliced_threads=0 / nr=0 / decimate=0 / interlaced=0 / bluray_compat=0 / constrained_intra=0 / fgo=0 / bframes=2 / b_pyramid=1 / b_adapt=2 / b_bias=0 / direct=3 / weightb=1 / open_gop=0 / weightp=2 / keyint=240 / keyint_min=23 / scenecut=40 / intra_refresh=0 / rc_lookahead=50 / rc=2pass / mbtree=1 / bitrate=2200 / ratetol=1.0 / qcomp=0.60 / qpmin=0:0:0 / qpmax=69:69:69 / qpstep=4 / cplxblur=20.0 / qblur=0.5 / vbv_maxrate=10000 / vbv_bufsize=10000 / nal_hrd=none / filler=0 / ip_ratio=1.40 / aq=3:1.00 / aq-sensitivity=10.00 / aq-factor=1.00:1.00:1.00 / aq2=1:0.80 / aq2-sensitivity=15.00 / aq2-factor=1.00:1.00:1.00 / aq3=4:[0.50:0.50]:[0.50:0.50]:[0.50:0.50]:[0.50:0.50] / aq3-sensitivity=10.00 / aq3-factor=[1.00:1.00]:[1.00:1.00]:[1.00:1.00] / aq3-boundary=192:64:24
Encoded date                             : UTC 2016-11-04 10:11:06
Tagged date                              : UTC 2016-11-04 10:23:18
Color range                              : Limited
Color primaries                          : BT.709
Transfer characteristics                 : BT.709
Matrix coefficients                      : BT.709
Menus                                    : 6

Audio #1
ID                                       : 2
Format                                   : AAC
Format/Info                              : Advanced Audio Codec
Format profile                           : LC
Codec ID                                 : 40
Duration                                 : 1h 42mn
Source duration                          : 1h 42mn
Bit rate mode                            : Variable
Bit rate                                 : 128 Kbps
Maximum bit rate                         : 133 Kbps
Channel(s)                               : 2 channels
Channel positions                        : Front: L R
Sampling rate                            : 48.0 KHz
Frame rate                               : 46.875 fps (1024 spf)
Compression mode                         : Lossy
Stream size                              : 94.3 MiB (5%)
Source stream size                       : 94.3 MiB (5%)
Language                                 : Russian
Default                                  : Yes
Alternate group                          : 1
Encoded date                             : UTC 2016-11-04 10:11:06
Tagged date                              : UTC 2016-11-04 10:23:18

Audio #2
ID                                       : 3
Format                                   : AAC
Format/Info                              : Advanced Audio Codec
Format profile                           : LC
Codec ID                                 : 40
Duration                                 : 1h 42mn
Source duration                          : 1h 42mn
Bit rate mode                            : Variable
Bit rate                                 : 128 Kbps
Maximum bit rate                         : 133 Kbps
Channel(s)                               : 2 channels
Channel positions                        : Front: L R
Sampling rate                            : 48.0 KHz
Frame rate                               : 46.875 fps (1024 spf)
Compression mode                         : Lossy
Stream size                              : 94.3 MiB (5%)
Source stream size                       : 94.3 MiB (5%)
Language                                 : English
Default                                  : No
Alternate group                          : 1
Encoded date                             : UTC 2016-11-04 10:11:06
Tagged date                              : UTC 2016-11-04 10:23:18

Text #1
ID                                       : 4
Format                                   : Timed Text
Muxing mode                              : sbtl
Codec ID                                 : tx3g
Duration                                 : 1h 38mn
Bit rate mode                            : Variable
Bit rate                                 : 128 bps
Stream size                              : 92.3 KiB (0%)
Language                                 : Russian
Default                                  : Yes
Forced                                   : No
Alternate group                          : 2
Encoded date                             : UTC 2016-11-04 10:11:06
Tagged date                              : UTC 2016-11-04 10:23:18

Text #2
ID                                       : 5
Format                                   : Timed Text
Muxing mode                              : sbtl
Codec ID                                 : tx3g
Duration                                 : 1h 38mn
Bit rate mode                            : Variable
Bit rate                                 : 89 bps
Stream size                              : 64.5 KiB (0%)
Language                                 : English
Default                                  : No
Forced                                   : No
Alternate group                          : 2
Encoded date                             : UTC 2016-11-04 10:11:06
Tagged date                              : UTC 2016-11-04 10:23:19

Menu
ID                                       : 6
Codec ID                                 : text
Duration                                 : 1h 42mn
Language                                 : English
Encoded date                             : UTC 2016-11-04 10:23:19
Tagged date                              : UTC 2016-11-04 10:23:19
Bit rate mode                            : CBR
Menu For                                 : 1
00:00:00.000                             : 00:00:00.000
00:02:52.005                             : 00:02:52.005
00:09:17.056                             : 00:09:17.056
00:14:30.285                             : 00:14:30.286
00:22:11.622                             : 00:22:11.622
00:29:30.102                             : 00:29:30.102
00:46:25.741                             : 00:46:25.741
00:52:25.142                             : 00:52:25.142
01:02:05.722                             : 01:02:05.722
01:15:37.366                             : 01:15:37.366
01:23:45.520                             : 01:23:45.520
01:36:35.790                             : 01:36:35.790
01:38:53.344                             : 01:38:53.344


Скриншоты:


Полицейский из Беверли-Хиллз 3 / Beverly Hills Cop III (1994) HDRip

«He's back!»

#77Производство: США / Paramount Pictures, Eddie Murphy Productions
Жанр: Боевик, Комедия

Режиссер: Джон Лэндис
Актеры: Эдди Мёрфи, Джадж Райнхолд, Гектор Элизондо, Тереза Рэндл, Джон Тенни, Джои Траволта, Юджин Колльер, Джимми Ортега, Усон Илам, Рэй Лайкинс

Описание:
После перерыва в семь лет полицейский из Детройта Аксель Фоули снова вынужден побывать у своих друзей в Беверли-Хиллз. Его приводят туда поиски убийцы любимого шефа.
В результате парк аттракционов «Мир чудес», где бандиты в жутком подполье печатали фальшивые доллары, стал ареной боевых действий, а наш герой отомстил убийцам, прославился и познакомился с очаровательной работницей парка.


Возраст: 16+ (зрителям, достигшим 16 лет)
Рейтинг MPAA: R (лицам до 17 лет обязательно присутствие взрослого)

Релиз от: NNMClub
Продолжительноcть: 1:44:14
Качество видео: HDRip
Перевод: Многоголосый закадровый - (Киномания)
Вид субтитров: Вшитые отключаемые
Язык субтитров: Русский

Видео: AVC/H.264 (Base@L3.1), 1024x576 (16:9), 2200 Кбит/сек
Аудио #1: AAC, 2 канала, 128 Кбит/сек - русский (многоголосый закадровый)
Аудио #2: AAC, 2 канала, 128 Кбит/сек - английский
Код:
General
Complete name                            : C:\DGI\Beverly.Hills.Cop.Collection.(1984-1994).576p.h264.NNMclub\Beverly.Hills.Cop.III.1994.576p.HDRip.AAC.h264.NNMclub.mp4
Format                                   : MPEG-4
Format profile                           : Base Media / Version 2
Codec ID                                 : mp42 (mp42/isom)
File size                                : 1.79 GiB
Duration                                 : 1h 44mn
Overall bit rate mode                    : Variable
Overall bit rate                         : 2 453 Kbps
Movie name                               : Beverly Hills Cop III
Performer                                : John Landis
Director                                 : John Landis
Actor                                    : Eddie Murphy / Judge Reinhold / Hector Elizondo / Timothy Carhart / Stephen McHattie / John Saxon / Theresa Randle / Bronson Pinchot / Alan Young / Al Green
Screenplay by                            : William Osborne / Michael Alan Eddy / John Bishop / William Davies / Steven E. de Souza
Producer                                 : Mark Lipson / Mace Neufeld / Robert G. Rehme
Genre                                    : Comedy
ContentType                              : Short Film
Description                              : Axel Foley (Eddie Murphy) journeys back to Beverly Hills for a real roller coaster thrill ride at the Wonderworld amusement park! Joined by old pals Billy Rosewood (Judge Reinhold) and Serge (Bronson Pinchot), Axel becomes the hottest new attraction as he chases down the bad guys on the rides, through the shows and in the underground maze beneath the park. Beverly Hills Cop III is "a wild, funny action comedy" that will have you hooked for the whole ride! Bill Diehl, ABC Radio Network
Recorded date                            : 1994-05-25
Encoded date                             : UTC 2016-11-04 11:14:58
Tagged date                              : UTC 2016-11-04 12:08:47
Copyright                                : © 2001 Paramount Pictures
Cover                                    : Yes
Rating                                   : None
LongDescription                          : Axel Foley (Eddie Murphy) journeys back to Beverly Hills for a real roller coaster thrill ride at the Wonderworld amusement park! Joined by old pals Billy Rosewood (Judge Reinhold) and Serge (Bronson Pinchot), Axel becomes the hottest new attraction as he chases down the bad guys on the rides, through the shows and in the underground maze beneath the park. Beverly Hills Cop III is "a wild, funny action comedy" that will have you hooked for the whole ride! Bill Diehl, ABC Radio Network
AppleStoreCountry                        : United States
AppleStoreCatalogID                      : 291732505
ContentRating                            : mpaa|R|400|

Video
ID                                       : 1
Format                                   : AVC
Format/Info                              : Advanced Video Codec
Format profile                           :
Format settings, CABAC                   : Yes
Format settings, ReFrames                : 3 frames
Codec ID                                 : avc1
Codec ID/Info                            : Advanced Video Coding
Duration                                 : 1h 44mn
Bit rate                                 : 2 200 Kbps
Width                                    : 1 024 pixels
Height                                   : 576 pixels
Display aspect ratio                     : 16:9
Frame rate mode                          : Variable
Frame rate                               : 23.976 (24000/1001) fps
Minimum frame rate                       : 23.810 fps
Maximum frame rate                       : 24.390 fps
Color space                              : YUV
Chroma subsampling                       : 4:2:0
Bit depth                                : 8 bits
Scan type                                : Progressive
Bits/(Pixel*Frame)                       : 0.156
Stream size                              : 1.59 GiB (89%)
Writing library                          : x264 core 148 r2721+55 e19946b t_mod_Custom [8-bit@all X86_64]
Encoding settings                        : cabac=1 / ref=3 / deblock=1:-3:-3 / analyse=0x1:0x111 / me=umh / subme=7 / psy=1 / fade_compensate=0.00 / psy_rd=1.00:0.00 / mixed_ref=1 / me_range=32 / chroma_me=1 / trellis=2 / 8x8dct=0 / cqm=0 / deadzone=21,11 / fast_pskip=0 / chroma_qp_offset=-2 / threads=12 / lookahead_threads=2 / sliced_threads=0 / nr=0 / decimate=0 / interlaced=0 / bluray_compat=0 / constrained_intra=0 / fgo=0 / bframes=2 / b_pyramid=1 / b_adapt=2 / b_bias=0 / direct=3 / weightb=1 / open_gop=0 / weightp=2 / keyint=240 / keyint_min=23 / scenecut=40 / intra_refresh=0 / rc_lookahead=50 / rc=2pass / mbtree=1 / bitrate=2200 / ratetol=1.0 / qcomp=0.60 / qpmin=0:0:0 / qpmax=69:69:69 / qpstep=4 / cplxblur=20.0 / qblur=0.5 / vbv_maxrate=10000 / vbv_bufsize=10000 / nal_hrd=none / filler=0 / ip_ratio=1.40 / aq=3:1.00 / aq-sensitivity=10.00 / aq-factor=1.00:1.00:1.00 / aq2=1:0.80 / aq2-sensitivity=15.00 / aq2-factor=1.00:1.00:1.00 / aq3=4:[0.50:0.50]:[0.50:0.50]:[0.50:0.50]:[0.50:0.50] / aq3-sensitivity=10.00 / aq3-factor=[1.00:1.00]:[1.00:1.00]:[1.00:1.00] / aq3-boundary=192:64:24
Encoded date                             : UTC 2016-11-04 11:14:58
Tagged date                              : UTC 2016-11-04 11:23:44
Color range                              : Limited
Color primaries                          : BT.709
Transfer characteristics                 : BT.709
Matrix coefficients                      : BT.709
Menus                                    : 5

Audio #1
ID                                       : 2
Format                                   : AAC
Format/Info                              : Advanced Audio Codec
Format profile                           : LC
Codec ID                                 : 40
Duration                                 : 1h 44mn
Source duration                          : 1h 44mn
Bit rate mode                            : Variable
Bit rate                                 : 128 Kbps
Maximum bit rate                         : 135 Kbps
Channel(s)                               : 2 channels
Channel positions                        : Front: L R
Sampling rate                            : 48.0 KHz
Frame rate                               : 46.875 fps (1024 spf)
Compression mode                         : Lossy
Stream size                              : 95.4 MiB (5%)
Source stream size                       : 95.4 MiB (5%)
Language                                 : Russian
Default                                  : Yes
Alternate group                          : 1
Encoded date                             : UTC 2016-11-04 11:14:58
Tagged date                              : UTC 2016-11-04 11:23:44

Audio #2
ID                                       : 3
Format                                   : AAC
Format/Info                              : Advanced Audio Codec
Format profile                           : LC
Codec ID                                 : 40
Duration                                 : 1h 44mn
Source duration                          : 1h 44mn
Bit rate mode                            : Variable
Bit rate                                 : 128 Kbps
Maximum bit rate                         : 131 Kbps
Channel(s)                               : 2 channels
Channel positions                        : Front: L R
Sampling rate                            : 48.0 KHz
Frame rate                               : 46.875 fps (1024 spf)
Compression mode                         : Lossy
Stream size                              : 95.4 MiB (5%)
Source stream size                       : 95.4 MiB (5%)
Language                                 : English
Default                                  : No
Alternate group                          : 1
Encoded date                             : UTC 2016-11-04 11:14:58
Tagged date                              : UTC 2016-11-04 11:23:44

Text
ID                                       : 4
Format                                   : Timed Text
Muxing mode                              : sbtl
Codec ID                                 : tx3g
Duration                                 : 1h 37mn
Bit rate mode                            : Variable
Bit rate                                 : 97 bps
Stream size                              : 69.0 KiB (0%)
Language                                 : Russian
Default                                  : Yes
Forced                                   : No
Alternate group                          : 2
Encoded date                             : UTC 2016-11-04 11:14:58
Tagged date                              : UTC 2016-11-04 11:23:44

Menu
ID                                       : 5
Codec ID                                 : text
Duration                                 : 1h 44mn
Language                                 : English
Encoded date                             : UTC 2016-11-04 11:23:44
Tagged date                              : UTC 2016-11-04 11:23:44
Bit rate mode                            : CBR
Menu For                                 : 1
00:00:00.000                             : 00:00:00.000
00:09:35.116                             : 00:09:35.116
00:15:58.958                             : 00:15:58.958
00:20:58.299                             : 00:20:58.299
00:26:57.699                             : 00:26:57.699
00:37:38.256                             : 00:37:38.256
00:40:06.487                             : 00:40:06.487
00:46:27.076                             : 00:46:27.076
00:53:20.489                             : 00:53:20.489
00:56:22.504                             : 00:56:22.504
01:03:24.342                             : 01:03:24.342
01:10:30.226                             : 01:10:30.226
01:19:38.857                             : 01:19:38.857
01:37:22.837                             : 01:37:22.837


Скриншоты:



Производство: США / Paramount Pictures, Don Simpson/Jerry Bruckheimer Films, Eddie Murphy Productions
Жанр: Боевик, Комедия, Криминал
Режиссер: Мартин Брест, Тони Скотт, Джон Лэндис
Актеры: Эдди Мёрфи, Джадж Райнхолд, Джон Эштон, Лиза Айлбакер, Ронни Кокс, Стивен Беркофф, Джеймс Руссо, Джонатан Бэнкс, Стивен Эллиот, Гилберт Р. Хилла, Юрген Прохнов, Ронни Кокс, Бриджит Нильсен, Аллен Гарфилд, Дин Стокуэлл, Пол Райзер, Гилберт Р. Хилл, Гектор Элизондо, Тереза Рэндл, Джон Тенни, Джои Траволта, Юджин Колльер, Джимми Ортега, Усон Илам, Рэй Лайкинс

Описание:
Чернокожий детройтский полицейский с помощью своего удивительного дара находить выход из любого положения стоит на страже порядка и закона. Множество драк, перестрелок, погонь, хорошей музыки и отменного юмора.

Продолжительность: 01:45:04 | 1:42:58 | 1:44:14
Перевод: Многоголосый закадровый - (Киномания)
Вид субтитров: Вшитые отключаемые
Язык субтитров: Русский, Английский

Скриншоты



Время раздачи: 24/7 (круглосуточно) (до появления первых 3-5 скачавших)
 
Не забывайте говорить Спасибо. Не уходите с раздачи!   
Торрент: Зарегистрирован [04 ноя 2016, 18:14] Для скачивания .torrent
необходима регистрация
Или скачать с помощью
MediaGet
Статус:
Проверен
 
.torrent скачан: 0 раз
Хэш: bcb0435f315c08e77451b661ee5a7f09a3c54b90
Размер: 5.37 ГБ (5 760 661 247 байт)
Стать Автором раздачи
 
 
Раздал: 100 ГБ
Скачал: 0 байт
Ратио: Seed.
Сообщения: 94032
Зарегистрирован: 09 апр 2015, 22:31


  • Похожие торренты
    Ответы
    Просмотры
    Последнее сообщение

Вернуться в Видео для мобильных устройств

Ресурс не предоставляет электронные версии произведений, а занимается лишь коллекционированием и каталогизацией ссылок, присылаемых и публикуемых на форуме нашими читателями. Если вы являетесь правообладателем какого-либо представленного материала и не желаете чтобы ссылка на него находилась в нашем каталоге, свяжитесь с нами и мы незамедлительно удалим её. Файлы для обмена на трекере предоставлены пользователями сайта, и администрация не несёт ответственности за их содержание. Просьба не заливать файлы, защищенные авторскими правами, а также файлы нелегального содержания!
cron