Налетчики / Marauders (2016) HDRip [H.264] [MP4|1024x428]

 
 Статистика раздачи 
Размер: 1.87 ГБ   |  Зарегистрирован: 04 ноя 2016, 17:20   |   .torrent скачан: 0 раз
Сидеров: 1  [ 0 байт/сек ]     Личеров: 0  [ 0 байт/сек ]  
  

Налетчики / Marauders (2016) HDRip [H.264] [MP4|1024x428]

Сообщение explosiveone » 04 ноя 2016, 17:20

Налетчики / Marauders (2016) HDRip

«The rich will pay»

Производство: Канада / Emmett/Furla/Oasis Films (EFO Films), 4th Wall Entertainment, Grindstone Entertainment Group
Жанр: Боевик, Триллер, Криминал

Режиссер: Стивен С. Миллер
Актеры: Брюс Уиллис, Кристофер Мелони, Дэйв Батиста, Адриан Гренье, Лидия Халл, Тайлер Джон Олсон, Кристофер Роб Бауэн, Ричи Чэнс, Дэнни А. Абекейзер

Описание:
История об агенте ФБР, который нападает на след преступников, ограбивших банк и отдавших все украденные деньги на благотворительные нужды. Чем дальше продвигается расследование, тем больше главный герой убеждается в том, что у владельца банка имеются собственные секреты.


Возраст: 16+ (зрителям, достигшим 16 лет)
Рейтинг MPAA: R (лицам до 17 лет обязательно присутствие взрослого)

Релиз от: NNMClub
Продолжительность: 01:47:07
Качество видео: HDRip
Перевод: Одноголосый закадровый - (Котов), Многоголосый закадровый
Язык субтитров: Русский, Английский
Реклама: Без рекламы

Видео: AVC/H.264 (Main@L3.1), 1024x428 (2.40:1), 2100 Кбит/сек
Аудио #1: AAC, 2 канала, 128 Кбит/сек - русский (одноголосый закадровый)
Аудио #2: AAC, 2 канала, 128 Кбит/сек - русский (многоголосый закадровый)
Аудио #3: AAC, 2 канала, 128 Кбит/сек - английский
Код:
General
Complete name                            : C:\DGI\Marauders.2016.576p.HDRip.h264.NNMclub.mp4
Format                                   : MPEG-4
Format profile                           : Base Media / Version 2
Codec ID                                 : mp42 (mp42/isom)
File size                                : 1.87 GiB
Duration                                 : 1h 47mn
Overall bit rate mode                    : Variable
Overall bit rate                         : 2 494 Kbps
Movie name                               : Marauders
Performer                                : Steven C. Miller
Director                                 : Steven C. Miller
Actor                                    : Bruce Willis / Christopher Meloni / Dave Bautista / Adrian Grenier / Lydia Hull / Johnathon Schaech
Screenplay by                            : Michael Cody / Chris Sivertson
Producer                                 : Randall Emmett / George Furla / Joshua Harris / Rosie Charbonneau / Mark Stewart
Genre                                    : Action & Adventure
ContentType                              : Short Film
Description                              : When an untraceable group of elite bank robbers execute the perfect heist making off with millions
Recorded date                            : 2016-07-01
Encoded date                             : UTC 2016-11-04 11:16:26
Tagged date                              : UTC 2016-11-04 12:09:42
Cover                                    : Yes
Rating                                   : None
LongDescription                          : When an untraceable group of elite bank robbers execute the perfect heist making off with millions in cash and leaving a dead bank manager in their wake, the FBI Agents investigating the robbery/homicide (Christopher Meloni, Dave Bautista and Adrian Grenier) begin to uncover signs of corruption involving the bank’s owner (Bruce Willis) and his high power clients. As they dig deeper into the case, the Feds realize that things are not what they seem, and in order to untangle a complicated web of deception and corruption they must push themselves to the brink – where the lines between right and wrong are often times blurred.
AppleStoreCountry                        : United States
AppleStoreCatalogID                      : 1120931989
ContentRating                            : mpaa|R|400|

Video
ID                                       : 1
Format                                   : AVC
Format/Info                              : Advanced Video Codec
Format profile                           :
Format settings, CABAC                   : Yes
Format settings, ReFrames                : 3 frames
Codec ID                                 : avc1
Codec ID/Info                            : Advanced Video Coding
Duration                                 : 1h 47mn
Bit rate                                 : 2 100 Kbps
Width                                    : 1 024 pixels
Height                                   : 428 pixels
Display aspect ratio                     : 2.40:1
Frame rate mode                          : Variable
Frame rate                               : 23.976 (24000/1001) fps
Minimum frame rate                       : 23.810 fps
Maximum frame rate                       : 24.390 fps
Color space                              : YUV
Chroma subsampling                       : 4:2:0
Bit depth                                : 8 bits
Scan type                                : Progressive
Bits/(Pixel*Frame)                       : 0.200
Stream size                              : 1.57 GiB (84%)
Writing library                          : x264 core 148 r2721+55 e19946b t_mod_Custom [8-bit@all X86_64]
Encoding settings                        : cabac=1 / ref=3 / deblock=1:-3:-3 / analyse=0x1:0x111 / me=umh / subme=7 / psy=1 / fade_compensate=0.00 / psy_rd=1.00:0.20 / mixed_ref=1 / me_range=32 / chroma_me=1 / trellis=2 / 8x8dct=0 / cqm=0 / deadzone=21,11 / fast_pskip=0 / chroma_qp_offset=-3 / threads=12 / lookahead_threads=2 / sliced_threads=0 / nr=0 / decimate=0 / interlaced=0 / bluray_compat=0 / constrained_intra=0 / fgo=0 / bframes=2 / b_pyramid=1 / b_adapt=2 / b_bias=0 / direct=3 / weightb=1 / open_gop=0 / weightp=2 / keyint=240 / keyint_min=23 / scenecut=40 / intra_refresh=0 / rc_lookahead=50 / rc=2pass / mbtree=1 / bitrate=2100 / ratetol=1.0 / qcomp=0.60 / qpmin=0:0:0 / qpmax=69:69:69 / qpstep=4 / cplxblur=20.0 / qblur=0.5 / vbv_maxrate=10000 / vbv_bufsize=10000 / nal_hrd=none / filler=0 / ip_ratio=1.40 / aq=3:0.90 / aq-sensitivity=10.00 / aq-factor=1.00:1.00:1.00 / aq2=1:0.90 / aq2-sensitivity=15.00 / aq2-factor=1.00:1.00:1.00 / aq3=4:[0.50:0.50]:[0.50:0.50]:[0.50:0.50]:[0.50:0.50] / aq3-sensitivity=10.00 / aq3-factor=[1.00:1.00]:[1.00:1.00]:[1.00:1.00] / aq3-boundary=192:64:24
Encoded date                             : UTC 2016-11-04 11:16:26
Tagged date                              : UTC 2016-11-04 11:26:03
Color range                              : Limited
Color primaries                          : BT.709
Transfer characteristics                 : BT.709
Matrix coefficients                      : BT.709
Menus                                    : 7

Audio #1
ID                                       : 2
Format                                   : AAC
Format/Info                              : Advanced Audio Codec
Format profile                           : LC
Codec ID                                 : 40
Duration                                 : 1h 47mn
Source duration                          : 1h 47mn
Bit rate mode                            : Variable
Bit rate                                 : 128 Kbps
Maximum bit rate                         : 134 Kbps
Channel(s)                               : 2 channels
Channel positions                        : Front: L R
Sampling rate                            : 48.0 KHz
Frame rate                               : 46.875 fps (1024 spf)
Compression mode                         : Lossy
Stream size                              : 98.1 MiB (5%)
Source stream size                       : 98.1 MiB (5%)
Language                                 : Russian
Default                                  : Yes
Alternate group                          : 1
Encoded date                             : UTC 2016-11-04 11:16:26
Tagged date                              : UTC 2016-11-04 11:26:03

Audio #2
ID                                       : 3
Format                                   : AAC
Format/Info                              : Advanced Audio Codec
Format profile                           : LC
Codec ID                                 : 40
Duration                                 : 1h 47mn
Source duration                          : 1h 47mn
Bit rate mode                            : Variable
Bit rate                                 : 128 Kbps
Maximum bit rate                         : 133 Kbps
Channel(s)                               : 2 channels
Channel positions                        : Front: L R
Sampling rate                            : 48.0 KHz
Frame rate                               : 46.875 fps (1024 spf)
Compression mode                         : Lossy
Stream size                              : 98.1 MiB (5%)
Source stream size                       : 98.1 MiB (5%)
Language                                 : Russian
Default                                  : No
Alternate group                          : 1
Encoded date                             : UTC 2016-11-04 11:16:26
Tagged date                              : UTC 2016-11-04 11:26:03

Audio #3
ID                                       : 4
Format                                   : AAC
Format/Info                              : Advanced Audio Codec
Format profile                           : LC
Codec ID                                 : 40
Duration                                 : 1h 47mn
Source duration                          : 1h 47mn
Bit rate mode                            : Variable
Bit rate                                 : 128 Kbps
Maximum bit rate                         : 133 Kbps
Channel(s)                               : 2 channels
Channel positions                        : Front: L R
Sampling rate                            : 48.0 KHz
Frame rate                               : 46.875 fps (1024 spf)
Compression mode                         : Lossy
Stream size                              : 98.1 MiB (5%)
Source stream size                       : 98.1 MiB (5%)
Language                                 : English
Default                                  : No
Alternate group                          : 1
Encoded date                             : UTC 2016-11-04 11:16:26
Tagged date                              : UTC 2016-11-04 11:26:03

Text #1
ID                                       : 5
Format                                   : Timed Text
Muxing mode                              : sbtl
Codec ID                                 : tx3g
Duration                                 : 1h 41mn
Bit rate mode                            : Variable
Bit rate                                 : 107 bps
Stream size                              : 79.4 KiB (0%)
Language                                 : Russian
Default                                  : Yes
Forced                                   : No
Alternate group                          : 2
Encoded date                             : UTC 2016-11-04 11:16:26
Tagged date                              : UTC 2016-11-04 11:26:03

Text #2
ID                                       : 6
Format                                   : Timed Text
Muxing mode                              : sbtl
Codec ID                                 : tx3g
Duration                                 : 1h 40mn
Bit rate mode                            : Variable
Bit rate                                 : 97 bps
Stream size                              : 71.2 KiB (0%)
Language                                 : English
Default                                  : No
Forced                                   : No
Alternate group                          : 2
Encoded date                             : UTC 2016-11-04 11:16:26
Tagged date                              : UTC 2016-11-04 11:26:03

Menu
ID                                       : 7
Codec ID                                 : text
Duration                                 : 1h 47mn
Language                                 : English
Encoded date                             : UTC 2016-11-04 11:26:03
Tagged date                              : UTC 2016-11-04 11:26:03
Bit rate mode                            : CBR
Menu For                                 : 1
00:00:00.000                             : 00:00:00.000
00:05:19.401                             : 00:05:19.402
00:11:57.717                             : 00:11:57.717
00:17:46.107                             : 00:17:46.107
00:24:42.648                             : 00:24:42.648
00:30:33.874                             : 00:30:33.874
00:39:07.679                             : 00:39:07.679
00:46:14.981                             : 00:46:14.981
00:51:49.356                             : 00:51:49.356
00:55:58.272                             : 00:55:58.272
01:02:08.016                             : 01:02:08.016
01:09:21.699                             : 01:09:21.699
01:16:38.594                             : 01:16:38.594
01:22:48.839                             : 01:22:48.839
01:28:22.172                             : 01:28:22.172
01:34:08.351                             : 01:34:08.351


Скриншоты:



Время раздачи: 24/7 (круглосуточно) (до появления первых 3-5 скачавших)
 
Не забывайте говорить Спасибо. Не уходите с раздачи!   
Торрент: Зарегистрирован [04 ноя 2016, 17:20] Для скачивания .torrent
необходима регистрация
Или скачать с помощью
MediaGet
Статус:
Проверен
 
.torrent скачан: 0 раз
Хэш: 65183c02669c065c926e3c4c6c77f3acda5b75ed
Размер: 1.87 ГБ (2 004 185 251 байт)
Стать Автором раздачи
 
 
Раздал: 100 ГБ
Скачал: 0 байт
Ратио: Seed.
Сообщения: 94048
Зарегистрирован: 09 апр 2015, 22:31


  • Похожие торренты
    Ответы
    Просмотры
    Последнее сообщение

Вернуться в Видео для мобильных устройств

Ресурс не предоставляет электронные версии произведений, а занимается лишь коллекционированием и каталогизацией ссылок, присылаемых и публикуемых на форуме нашими читателями. Если вы являетесь правообладателем какого-либо представленного материала и не желаете чтобы ссылка на него находилась в нашем каталоге, свяжитесь с нами и мы незамедлительно удалим её. Файлы для обмена на трекере предоставлены пользователями сайта, и администрация не несёт ответственности за их содержание. Просьба не заливать файлы, защищенные авторскими правами, а также файлы нелегального содержания!
cron