Дуэлянт (2016) WEB-DLRip [H.264] [MP4|1024x432]

 
 Статистика раздачи 
Размер: 1.56 ГБ   |  Зарегистрирован: 04 ноя 2016, 01:04   |   .torrent скачан: 1 раз
Сидеров: 1  [ 0 байт/сек ]     Личеров: 0  [ 0 байт/сек ]  
  

Дуэлянт (2016) WEB-DLRip [H.264] [MP4|1024x432]

Сообщение explosiveone » 04 ноя 2016, 01:04

Дуэлянт (2016) WEB-DLRip

«На темной стороне чести»

Производство: Россия / Non-Stop Production
Жанр: Драма

Режиссер: Алексей Мизгирёв
Актеры: Пётр Фёдоров, Владимир Машков, Юлия Хлынина, Франциска Петри, Мартин Вуттке, Сергей Гармаш, Павел Табаков, Юрий Колокольников, Александр Яценко, Пьер Бур

Описание:
В центре сюжета профессиональный дуэлянт, который зарабатывает на жизнь, участвуя в поединках за других людей.


Возраст: 16+ (зрителям, достигшим 16 лет)
Рейтинг MPAA: R (лицам до 17 лет обязательно присутствие взрослого)

Релиз от: NNMClub
Продолжительность: 01:44:43
Качество видео: DLRip
Перевод: Не требуется, русский - (iTunes)
Вид субтитров: Отсутствуют
Реклама: Без рекламы

Видео: AVC/H.264 (Main@L3.1), 1024x432 (2.40:1), 2000 Кбит/сек
Аудио #1: AAC, 2 канала, 128 Кбит/сек - русский (оригинальный)
Код:
General
Complete name                            : C:\CREATE\264mod1\out\1\Дуэлянт.2016.576p.WEB-DLRip.AAC.h264.NNMClub.mp4
Format                                   : MPEG-4
Format profile                           : Base Media / Version 2
Codec ID                                 : mp42 (mp42/isom)
File size                                : 1.56 GiB
Duration                                 : 1h 44mn
Overall bit rate mode                    : Variable
Overall bit rate                         : 2 133 Kbps
Movie name                               : ДУЭЛЯНТ
Performer                                : Alexei Mizgirev
Director                                 : Alexei Mizgirev
Actor                                    : Peter Fedorov / Julia Khlynina / Yuriy Kolokolnikov / Vladimir Mashkov / Franziska Petri / Martin Wuttke
Genre                                    : Боевики и приключения
ContentType                              : Short Film
Description                              : 1860-й год. После пяти лет жизни у диких алеутов отставной офицер Яковлев возвращается в Петербург
Recorded date                            : 2016-09-29
Encoded date                             : UTC 2016-11-03 20:26:12
Tagged date                              : UTC 2016-11-03 20:30:26
Cover                                    : Yes
Rating                                   : None
LongDescription                          : 1860-й год. После пяти лет жизни у диких алеутов отставной офицер Яковлев возвращается в Петербург.  Прошлое его загадочно. Очень быстро он становится известен как  хладнокровный дуэлянт, забирающий человеческие жизни. Он неуязвим, словно заключил сделку с дьяволом. Им движет страстное желание отомстить виновным в его несчастьях и вернуть утерянную честь.
AppleStoreCountry                        : Unknown Country
AppleStoreCatalogID                      : 1169309394
ContentRating                            : ru-movie|16+|375|

Video
ID                                       : 1
Format                                   : AVC
Format/Info                              : Advanced Video Codec
Format profile                           :
Format settings, CABAC                   : Yes
Format settings, ReFrames                : 3 frames
Codec ID                                 : avc1
Codec ID/Info                            : Advanced Video Coding
Duration                                 : 1h 44mn
Bit rate                                 : 2 000 Kbps
Width                                    : 1 024 pixels
Height                                   : 432 pixels
Display aspect ratio                     : 2.40:1
Frame rate mode                          : Constant
Frame rate                               : 25.000 fps
Color space                              : YUV
Chroma subsampling                       : 4:2:0
Bit depth                                : 8 bits
Scan type                                : Progressive
Bits/(Pixel*Frame)                       : 0.181
Stream size                              : 1.46 GiB (94%)
Writing library                          : x264 core 148 r2721+55 e19946b t_mod_Custom [8-bit@all X86_64]
Encoding settings                        : cabac=1 / ref=3 / deblock=1:-1:-1 / analyse=0x1:0x111 / me=umh / subme=7 / psy=1 / fade_compensate=0.00 / psy_rd=1.00:0.00 / mixed_ref=1 / me_range=32 / chroma_me=1 / trellis=2 / 8x8dct=0 / cqm=0 / deadzone=21,11 / fast_pskip=0 / chroma_qp_offset=-2 / threads=12 / lookahead_threads=2 / sliced_threads=0 / nr=0 / decimate=0 / interlaced=0 / bluray_compat=0 / constrained_intra=0 / fgo=0 / bframes=2 / b_pyramid=1 / b_adapt=2 / b_bias=0 / direct=3 / weightb=1 / open_gop=0 / weightp=2 / keyint=250 / keyint_min=25 / scenecut=40 / intra_refresh=0 / rc_lookahead=50 / rc=2pass / mbtree=1 / bitrate=2000 / ratetol=1.0 / qcomp=0.60 / qpmin=0:0:0 / qpmax=69:69:69 / qpstep=4 / cplxblur=20.0 / qblur=0.5 / vbv_maxrate=10000 / vbv_bufsize=10000 / nal_hrd=none / filler=0 / ip_ratio=1.40 / aq=3:1.00 / aq-sensitivity=10.00 / aq-factor=1.00:1.00:1.00 / aq2=1:0.80 / aq2-sensitivity=15.00 / aq2-factor=1.00:1.00:1.00 / aq3=4:[0.50:0.50]:[0.50:0.50]:[0.50:0.50]:[0.50:0.50] / aq3-sensitivity=10.00 / aq3-factor=[1.00:1.00]:[1.00:1.00]:[1.00:1.00] / aq3-boundary=192:64:24
Encoded date                             : UTC 2016-11-03 20:26:12
Tagged date                              : UTC 2016-11-03 20:30:26
Color range                              : Limited
Color primaries                          : BT.709
Transfer characteristics                 : BT.709
Matrix coefficients                      : BT.709
Menus                                    : 3

Audio
ID                                       : 2
Format                                   : AAC
Format/Info                              : Advanced Audio Codec
Format profile                           : LC
Codec ID                                 : 40
Duration                                 : 1h 44mn
Source duration                          : 1h 44mn
Bit rate mode                            : Variable
Bit rate                                 : 128 Kbps
Maximum bit rate                         : 133 Kbps
Channel(s)                               : 2 channels
Channel positions                        : Front: L R
Sampling rate                            : 48.0 KHz
Frame rate                               : 46.875 fps (1024 spf)
Compression mode                         : Lossy
Stream size                              : 95.9 MiB (6%)
Source stream size                       : 95.9 MiB (6%)
Language                                 : Russian
Default                                  : Yes
Alternate group                          : 1
Encoded date                             : UTC 2016-11-03 20:26:12
Tagged date                              : UTC 2016-11-03 20:30:26

Menu
ID                                       : 3
Codec ID                                 : text
Duration                                 : 1h 44mn
Language                                 : English
Encoded date                             : UTC 2016-11-03 20:30:26
Tagged date                              : UTC 2016-11-03 20:30:26
Menu For                                 : 1
00:00:00.000                             : 1
00:06:46.560                             : 2
00:14:28.240                             : 3
00:21:11.040                             : 4
00:26:11.000                             : 5
00:30:12.000                             : 6
00:36:18.960                             : 7
00:43:45.240                             : 8
00:49:11.720                             : 9
00:56:21.320                             : 10
01:02:33.280                             : 11
01:08:04.240                             : 12
01:13:35.240                             : 13
01:20:05.440                             : 14
01:27:22.320                             : 15
01:34:01.040                             : 16
Bit rate mode                            : VBR

Скриншоты:



Время раздачи: 24/7 (круглосуточно) (до появления первых 3-5 скачавших)
 
Не забывайте говорить Спасибо. Не уходите с раздачи!   
Торрент: Зарегистрирован [04 ноя 2016, 01:04] Для скачивания .torrent
необходима регистрация
Или скачать с помощью
MediaGet
Статус:
Проверен
 
.torrent скачан: 1 раз
Хэш: b388110b4cee63535761eb3a9124afa04df4f1f5
Размер: 1.56 ГБ (1 675 311 925 байт)
Стать Автором раздачи
 
 
Раздал: 100 ГБ
Скачал: 0 байт
Ратио: Seed.
Сообщения: 94048
Зарегистрирован: 09 апр 2015, 22:31


  • Похожие торренты
    Ответы
    Просмотры
    Последнее сообщение

Вернуться в Видео для мобильных устройств

Ресурс не предоставляет электронные версии произведений, а занимается лишь коллекционированием и каталогизацией ссылок, присылаемых и публикуемых на форуме нашими читателями. Если вы являетесь правообладателем какого-либо представленного материала и не желаете чтобы ссылка на него находилась в нашем каталоге, свяжитесь с нами и мы незамедлительно удалим её. Файлы для обмена на трекере предоставлены пользователями сайта, и администрация не несёт ответственности за их содержание. Просьба не заливать файлы, защищенные авторскими правами, а также файлы нелегального содержания!
cron