Discovery. Загадки планеты Земля / What on Earth? HDTVRip (2016) HDTVRip [720p-LQ] (2 сезон: серия 1-5 из 5)

 
 Статистика раздачи 
Размер: 3.14 ГБ   |  Зарегистрирован: 04 ноя 2016, 00:02   |   .torrent скачан: 0 раз
Сидеров: 1  [ 0 байт/сек ]     Личеров: 0  [ 0 байт/сек ]  
  

Discovery. Загадки планеты Земля / What on Earth? HDTVRip (2016) HDTVRip [720p-LQ] (2 сезон: серия 1-5 из 5)

Сообщение explosiveone » 04 ноя 2016, 00:02

Discovery. Загадки планеты Земля / What on Earth? HDTVRip (2016) HDTVRip

Телекомпания: США, Discovery Communications, LLC
Жанр: Документальный, научно-познавательный

Режиссер: Daniel Edwards, Jon Nutter, Mike Wafer
Участники: Steven Kearney, Nick Pope, Mike Capps, Randy Cerveny, Alan Lester, James W. Houston, Andrew Gough, Rob Nelson, Roland Kays, Jonathon Hill

Описание:
Второй сезон "What On Earth?" продолжает рассказ о самых необычных явлениях на планете Земля.
Глаза на небе. Они наблюдают за нами из космоса, сотни спутников впервые открывают нашему взору странные объекты и явления, которые мы не можем объяснить. Загадочные явления, которые видны из космоса - что-же это такое?

Продолжительность: 5 x ~00:42:00
Качество видео: HDTVRip
Перевод: Одноголосый закадровый, профессиональный

Видео: Xvid, 1280x720, ~2000 Kbps
Аудио: MP3, 2 ch, 128 Kbps, CBR
1 Серия: Затерянный город в Калахари
- Черное вращающееся пятно у берегов Флориды;
- Нечто подо льдами Антарктиды;
- Странные спирали в африканской пустыне Калахари;
- Спутник стал свидетелем жестокого убийства;
- Светящиеся точки и полосы в малообитаемых местностях.

2 Серия: Тайна горы Судного Дня.
- Пустыня выглядит как кожа пораженная оспой. Земля болеет?
- Остров длинной в 26 километров исчез посреди Тихого океана;
- Странные явления за которыми следует ужасающий шторм;
- Руины города в амазонской сельве. Эльдорадо?
- На горе Арарат сфотографирован Ноев ковчег?
- Невада. НЛО у секретной базы "Зона-51".

3 Серия: Пропавшие во Вьетнаме.
- эскадра кораблей-призраков, стоящая в пустыни;
- загадочный туман, покрывший половину Северной Америки;
- отчаянные синалы военнопленного, оставшегося во Вьетнаме;
- странные "стены восточного залива" в горах Калифорнии;
- курганы с очертаниями животных в Перу и их связь с Эль-Ниньо.

4 Серия: Кто построил Остров Супер злодея?
- загадочные стрелы, пересекающие пустыню на западе США;
- кроваво-красные пятна в снегах Антарктики;
- появление ровных, круглых отверстий по всей Сибири;
- совершенно новый остров там, где только-что было чистое море;
- загадочный объект в пустыни Ливии;
- тайные символы и постройки саентологов.

5 Серия: Затерянная гробница Чингисхана.
- загадочные подводные узоры у берегов Южной Кореи;
- на юге Тихого океана появился дрейфующий остров размером с небольшую страну;
- город, таящийся под водой;
- может ли находка быть могилой Чингисхана;
- непонятные следы гигантских сооружений скрытых под грунтом древних болот;
- что-же находится в песках пустыни в Алжире?;
- откуда-же бралась вода в древней Пальмире?.
Код: Выделить всё
Общее
Полное имя                               : E:\Документальное\Загадки планеты Земля - What on Earth (2016) S02 HDTVRip\01. Затерянный город в Калахари.avi
Формат                                   : AVI
Формат/Информация                        : Audio Video Interleave
Размер файла                             : 640 Мбайт
Продолжительность                        : 42 м.
Общий поток                              : 2116 Кбит/сек
Программа кодирования                    : MEncoder SVN-r33883(20110719-gcc4.5.2)
Библиотека кодирования                   : MPlayer

Видео
Идентификатор                            : 0
Формат                                   : MPEG-4 Visual
Профиль формата                          : Advanced Simple@L5
Параметр BVOP формата                    : 2
Параметр QPel формата                    : Нет
Параметр GMC формата                     : Без точки перехода
Параметр матрицы формата                 : Default (H.263)
Идентификатор кодека                     : XVID
Идентификатор кодека/Подсказка           : XviD
Продолжительность                        : 42 м.
Битрейт                                  : 1976 Кбит/сек
Ширина                                   : 1280 пикселей
Высота                                   : 720 пикселей
Соотношение сторон                       : 16:9
Частота кадров                           : 25,000 кадров/сек
Цветовое пространство                    : YUV
Субдискретизация насыщенности            : 4:2:0
Битовая глубина                          : 8 бит
Тип развёртки                            : Прогрессивная
Метод сжатия                             : С потерями
Бит/(Пиксели*Кадры)                      : 0.086
Размер потока                            : 597 Мбайт (93%)
Библиотека кодирования                   : XviD 1.2.1 (UTC 2008-12-04)

Аудио
Идентификатор                            : 1
Формат                                   : MPEG Audio
Версия формата                           : Version 1
Профиль формата                          : Layer 3
Режим                                    : Joint stereo
Расширение режима                        : MS Stereo
Идентификатор кодека                     : 55
Идентификатор кодека/Подсказка           : MP3
Продолжительность                        : 42 м.
Вид битрейта                             : Постоянный
Битрейт                                  : 128 Кбит/сек
Каналы                                   : 2 канала
Частота                                  : 44,1 КГц
Метод сжатия                             : С потерями
Задержка видео                           : 40 мс.
Размер потока                            : 38,7 Мбайт (6%)
Выравнивание                             : Соединение по промежуткам
Продолжительность промежутка             : 26  мс. (0,65 видеокадр)
Время предзагрузки промежутка            : 522  мс.
Библиотека кодирования                   : LAME3.98.4

Общее
Полное имя                               : E:\Документальное\Загадки планеты Земля - What on Earth (2016) S02 HDTVRip\02. Тайна горы Судного Дня.avi
Формат                                   : AVI
Формат/Информация                        : Audio Video Interleave
Размер файла                             : 637 Мбайт
Продолжительность                        : 41 м.
Общий поток                              : 2140 Кбит/сек
Программа кодирования                    : MEncoder SVN-r33883(20110719-gcc4.5.2)
Библиотека кодирования                   : MPlayer

Видео
Идентификатор                            : 0
Формат                                   : MPEG-4 Visual
Профиль формата                          : Advanced Simple@L5
Параметр BVOP формата                    : 2
Параметр QPel формата                    : Нет
Параметр GMC формата                     : Без точки перехода
Параметр матрицы формата                 : Default (H.263)
Идентификатор кодека                     : XVID
Идентификатор кодека/Подсказка           : XviD
Продолжительность                        : 41 м.
Битрейт                                  : 1999 Кбит/сек
Ширина                                   : 1280 пикселей
Высота                                   : 720 пикселей
Соотношение сторон                       : 16:9
Частота кадров                           : 30,000 кадров/сек
Цветовое пространство                    : YUV
Субдискретизация насыщенности            : 4:2:0
Битовая глубина                          : 8 бит
Тип развёртки                            : Прогрессивная
Метод сжатия                             : С потерями
Бит/(Пиксели*Кадры)                      : 0.072
Размер потока                            : 595 Мбайт (93%)
Библиотека кодирования                   : XviD 1.2.1 (UTC 2008-12-04)

Аудио
Идентификатор                            : 1
Формат                                   : MPEG Audio
Версия формата                           : Version 1
Профиль формата                          : Layer 3
Режим                                    : Joint stereo
Расширение режима                        : MS Stereo
Идентификатор кодека                     : 55
Идентификатор кодека/Подсказка           : MP3
Продолжительность                        : 41 м.
Вид битрейта                             : Постоянный
Битрейт                                  : 128 Кбит/сек
Каналы                                   : 2 канала
Частота                                  : 44,1 КГц
Метод сжатия                             : С потерями
Задержка видео                           : 33 мс.
Размер потока                            : 38,1 Мбайт (6%)
Выравнивание                             : Соединение по промежуткам
Продолжительность промежутка             : 26  мс. (0,78 видеокадр)
Время предзагрузки промежутка            : 522  мс.

Общее
Полное имя                               : E:\Документальное\Загадки планеты Земля - What on Earth (2016) S02 HDTVRip\03. Пропавшие во Вьетнаме.avi
Формат                                   : AVI
Формат/Информация                        : Audio Video Interleave
Размер файла                             : 654 Мбайт
Продолжительность                        : 42 м.
Общий поток                              : 2140 Кбит/сек
Программа кодирования                    : MEncoder SVN-r33883(20110719-gcc4.5.2)
Библиотека кодирования                   : MPlayer

Видео
Идентификатор                            : 0
Формат                                   : MPEG-4 Visual
Профиль формата                          : Advanced Simple@L5
Параметр BVOP формата                    : 2
Параметр QPel формата                    : Нет
Параметр GMC формата                     : Без точки перехода
Параметр матрицы формата                 : Default (H.263)
Идентификатор кодека                     : XVID
Идентификатор кодека/Подсказка           : XviD
Продолжительность                        : 42 м.
Битрейт                                  : 1999 Кбит/сек
Ширина                                   : 1280 пикселей
Высота                                   : 720 пикселей
Соотношение сторон                       : 16:9
Частота кадров                           : 30,000 кадров/сек
Цветовое пространство                    : YUV
Субдискретизация насыщенности            : 4:2:0
Битовая глубина                          : 8 бит
Тип развёртки                            : Прогрессивная
Метод сжатия                             : С потерями
Бит/(Пиксели*Кадры)                      : 0.072
Размер потока                            : 611 Мбайт (93%)
Библиотека кодирования                   : XviD 1.2.1 (UTC 2008-12-04)

Аудио
Идентификатор                            : 1
Формат                                   : MPEG Audio
Версия формата                           : Version 1
Профиль формата                          : Layer 3
Режим                                    : Joint stereo
Идентификатор кодека                     : 55
Идентификатор кодека/Подсказка           : MP3
Продолжительность                        : 42 м.
Вид битрейта                             : Постоянный
Битрейт                                  : 128 Кбит/сек
Каналы                                   : 2 канала
Частота                                  : 44,1 КГц
Метод сжатия                             : С потерями
Задержка видео                           : 33 мс.
Размер потока                            : 39,1 Мбайт (6%)
Выравнивание                             : Соединение по промежуткам
Продолжительность промежутка             : 26  мс. (0,78 видеокадр)
Время предзагрузки промежутка            : 522  мс.

Общее
Полное имя                               : E:\Документальное\Загадки планеты Земля - What on Earth (2016) S02 HDTVRip\04. Кто построил Остров Суперзлодея.avi
Формат                                   : AVI
Формат/Информация                        : Audio Video Interleave
Размер файла                             : 640 Мбайт
Продолжительность                        : 41 м.
Общий поток                              : 2141 Кбит/сек
Программа кодирования                    : MEncoder SVN-r33883(20110719-gcc4.5.2)
Библиотека кодирования                   : MPlayer

Видео
Идентификатор                            : 0
Формат                                   : MPEG-4 Visual
Профиль формата                          : Advanced Simple@L5
Параметр BVOP формата                    : 2
Параметр QPel формата                    : Нет
Параметр GMC формата                     : Без точки перехода
Параметр матрицы формата                 : Default (H.263)
Идентификатор кодека                     : XVID
Идентификатор кодека/Подсказка           : XviD
Продолжительность                        : 41 м.
Битрейт                                  : 2000 Кбит/сек
Ширина                                   : 1280 пикселей
Высота                                   : 720 пикселей
Соотношение сторон                       : 16:9
Частота кадров                           : 30,000 кадров/сек
Цветовое пространство                    : YUV
Субдискретизация насыщенности            : 4:2:0
Битовая глубина                          : 8 бит
Тип развёртки                            : Прогрессивная
Метод сжатия                             : С потерями
Бит/(Пиксели*Кадры)                      : 0.072
Размер потока                            : 598 Мбайт (93%)
Библиотека кодирования                   : XviD 1.2.1 (UTC 2008-12-04)

Аудио
Идентификатор                            : 1
Формат                                   : MPEG Audio
Версия формата                           : Version 1
Профиль формата                          : Layer 3
Режим                                    : Joint stereo
Идентификатор кодека                     : 55
Идентификатор кодека/Подсказка           : MP3
Продолжительность                        : 41 м.
Вид битрейта                             : Постоянный
Битрейт                                  : 128 Кбит/сек
Каналы                                   : 2 канала
Частота                                  : 44,1 КГц
Метод сжатия                             : С потерями
Задержка видео                           : 33 мс.
Размер потока                            : 38,3 Мбайт (6%)
Выравнивание                             : Соединение по промежуткам
Продолжительность промежутка             : 26  мс. (0,78 видеокадр)
Время предзагрузки промежутка            : 522  мс.

Общее
Полное имя                               : E:\Документальное\Загадки планеты Земля - What on Earth (2016) S02 HDTVRip\05. Затерянная гробница Чингисхана..avi
Формат                                   : AVI
Формат/Информация                        : Audio Video Interleave
Размер файла                             : 641 Мбайт
Продолжительность                        : 41 м.
Общий поток                              : 2141 Кбит/сек
Программа кодирования                    : MEncoder SVN-r33883(20110719-gcc4.5.2)
Библиотека кодирования                   : MPlayer

Видео
Идентификатор                            : 0
Формат                                   : MPEG-4 Visual
Профиль формата                          : Advanced Simple@L5
Параметр BVOP формата                    : 2
Параметр QPel формата                    : Нет
Параметр GMC формата                     : Без точки перехода
Параметр матрицы формата                 : Default (H.263)
Идентификатор кодека                     : XVID
Идентификатор кодека/Подсказка           : XviD
Продолжительность                        : 41 м.
Битрейт                                  : 2000 Кбит/сек
Ширина                                   : 1280 пикселей
Высота                                   : 720 пикселей
Соотношение сторон                       : 16:9
Частота кадров                           : 30,000 кадров/сек
Цветовое пространство                    : YUV
Субдискретизация насыщенности            : 4:2:0
Битовая глубина                          : 8 бит
Тип развёртки                            : Прогрессивная
Метод сжатия                             : С потерями
Бит/(Пиксели*Кадры)                      : 0.072
Размер потока                            : 599 Мбайт (93%)
Библиотека кодирования                   : XviD 1.2.1 (UTC 2008-12-04)

Аудио
Идентификатор                            : 1
Формат                                   : MPEG Audio
Версия формата                           : Version 1
Профиль формата                          : Layer 3
Режим                                    : Joint stereo
Идентификатор кодека                     : 55
Идентификатор кодека/Подсказка           : MP3
Продолжительность                        : 41 м.
Вид битрейта                             : Постоянный
Битрейт                                  : 128 Кбит/сек
Каналы                                   : 2 канала
Частота                                  : 44,1 КГц
Метод сжатия                             : С потерями
Задержка видео                           : 33 мс.
Размер потока                            : 38,3 Мбайт (6%)
Выравнивание                             : Соединение по промежуткам
Продолжительность промежутка             : 26  мс. (0,78 видеокадр)
Время предзагрузки промежутка            : 522  мс.
При каждом добавлении создаётся новый торрент.
Чтобы начать докачку новой серии, пользователям необходимо сделать следующее:
1. Остановить скачивание;
2. Удалить старый торрент у себя из клиента (старые серии удалять не надо);
3. Скачать новый торрент и запустить его у себя в клиенте вместо старого, при этом указать клиенту путь в старую папку куда и должно происходить скачивание новых серий. Ваш клиент при этом должен произвести хеширование (проверку) старой папки и будет докачивать только те серии, которых у вас ещё нет. Старые серии при этом не удаляются, а продолжают раздаваться! Eсли вы уже удалили старые серии, то предотвратить повторную закачку старых серий можно, отжав галочку в соответствующих местах при запуске нового торрента.

Скриншоты:




Время раздачи: 24/7 (до появления первых 3-5 скачавших)
 
Не забывайте говорить Спасибо. Не уходите с раздачи!   
Торрент: Зарегистрирован [04 ноя 2016, 00:02] Для скачивания .torrent
необходима регистрация
Или скачать с помощью
MediaGet
Статус:
Проверен
 
.torrent скачан: 0 раз
Хэш: 23b987dd706dd15304f1cf6444289a3f21480533
Размер: 3.14 ГБ (3 368 522 486 байт)
Стать Автором раздачи
 
 
Раздал: 100 ГБ
Скачал: 0 байт
Ратио: Seed.
Сообщения: 90065
Зарегистрирован: 09 апр 2015, 22:31


  • Похожие торренты
    Ответы
    Просмотры
    Последнее сообщение

Вернуться в Discovery

Ресурс не предоставляет электронные версии произведений, а занимается лишь коллекционированием и каталогизацией ссылок, присылаемых и публикуемых на форуме нашими читателями. Если вы являетесь правообладателем какого-либо представленного материала и не желаете чтобы ссылка на него находилась в нашем каталоге, свяжитесь с нами и мы незамедлительно удалим её. Файлы для обмена на трекере предоставлены пользователями сайта, и администрация не несёт ответственности за их содержание. Просьба не заливать файлы, защищенные авторскими правами, а также файлы нелегального содержания!
cron