Чувственная математика / Colors of Math / Matematiikkaa kaikille aisteille (Екатерина Еременко / 24 DOC) [2012, Документальный, DVD5]

 
 Статистика раздачи 
Размер: 2.64 ГБ   |  Зарегистрирован: 03 ноя 2016, 21:41   |   .torrent скачан: 1 раз
Сидеров: 3  [ 0 байт/сек ]     Личеров: 1  [ 0 байт/сек ]  
  

Чувственная математика / Colors of Math / Matematiikkaa kaikille aisteille (Екатерина Еременко / 24 DOC) [2012, Документальный, DVD5]

Сообщение aLaVodka » 03 ноя 2016, 21:41

Чувственная математика / Colors of Math / Matematiikkaa kaikille aisteille

Год выпуска: 2012
Страна: Россия | Германия | США | Франция
Жанр: Документальный
Продолжительность: 00:59:42
Перевод: Не требуется
Русские субтитры: есть
Вид субтитров: Вшитые , неотключаемые (на непереведённые места)

Режиссер: Екатерина Еременко / 24 DOC

Дата мировой премьеры: 19 февраля 2013 Финляндия премьера на ТВ



Описание: Фильм состоит из нескольких новелл. По одной на каждое чувство: вкус, зрение, обоняние, осязание, слух и чувство баланса.

Меню: Нет

Сэмпл: https://www.sendspace.com/file/xdy5sj

Главы (разбивка по трекам): есть
Качество: DVD5
Формат: DVD Video
Видео кодек: MPEG2
Аудио кодек: MP2
Видео: PAL 16:9 720x576@1024x576, 25.000 fps, ~5976 kbps
Аудио: Russian MP2 2.0, 192 Кбит/сек, 48,0 КГц
Код: Выделить всё
Title: Чувственная математика (2012) DVD5
Size: 2.64 Gb ( 2 767 140,00 KBytes ) - DVD-5
Enabled regions: 1, 2, 3, 4, 5, 6, 7, 8

VTS_01 :
  Play Length: 00:59:42
  Video: PAL 16:9 (720x576) VBR, Auto Pan&Scan, Auto Letterboxed
  Audio:
      Not specified, MPA, Delay = 0 mSec

* Menus Information *

VIDEO_TS Menu
Video:
      NTSC 4:3 (720x480) VBR
      Auto Pan&Scan, Auto Letterboxed
Language Unit :

VTS_01 Menu
Video:
      NTSC 4:3 (720x480) VBR
      Auto Pan&Scan, Auto Letterboxed
Language Unit :
      Subpicture Menu
      Angle menu
Language Unit :
      Subpicture Menu
      Angle menu
Language Unit :
      Subpicture Menu
      Angle menu
Language Unit :
      Subpicture Menu
      Angle menu
Language Unit :
      Subpicture Menu
      Angle menu
Код: Выделить всё
Общее
Полное имя                               : E:\Фильмы\Документальные фильмы\Чувственная математика 2012\Чувственная математика (2012) DVD5\VIDEO_TS\VIDEO_TS.BUP
Формат                                   : DVD Video
Профиль формата                          : Menu
Размер файла                             : 6,00 Кбайт
Режим общего битрейта                    : Переменный

Видео
Идентификатор                            : 224 (0xE0)
Формат                                   : MPEG Video
Версия формата                           : Version 1
Вид битрейта                             : Переменный
Ширина                                   : 720 пикселей
Высота                                   : 480 пикселей
Соотношение сторон                       : 4:3
Частота кадров                           : 29,970 (29970/1000) кадров/сек
Стандарт вещания                         : NTSC
Метод сжатия                             : С потерями

Общее
Полное имя                               : E:\Фильмы\Документальные фильмы\Чувственная математика 2012\Чувственная математика (2012) DVD5\VIDEO_TS\VIDEO_TS.IFO
Формат                                   : DVD Video
Профиль формата                          : Menu
Размер файла                             : 6,00 Кбайт
Режим общего битрейта                    : Переменный

Видео
Идентификатор                            : 224 (0xE0)
Формат                                   : MPEG Video
Версия формата                           : Version 1
Вид битрейта                             : Переменный
Ширина                                   : 720 пикселей
Высота                                   : 480 пикселей
Соотношение сторон                       : 4:3
Частота кадров                           : 29,970 (29970/1000) кадров/сек
Стандарт вещания                         : NTSC
Метод сжатия                             : С потерями

Общее
Полное имя                               : E:\Фильмы\Документальные фильмы\Чувственная математика 2012\Чувственная математика (2012) DVD5\VIDEO_TS\VTS_01_0.BUP
Формат                                   : DVD Video
Профиль формата                          : Program
Размер файла                             : 40,0 Кбайт
Продолжительность                        : 59 м. 42 с.
Режим общего битрейта                    : Переменный
Общий поток                              : 91 бит/сек

Видео
Идентификатор                            : 224 (0xE0)
Формат                                   : MPEG Video
Версия формата                           : Version 2
Продолжительность                        : 59 м. 42 с.
Вид битрейта                             : Переменный
Ширина                                   : 720 пикселей
Высота                                   : 576 пикселей
Соотношение сторон                       : 16:9
Частота кадров                           : 25,000 кадров/сек
Стандарт вещания                         : PAL
Метод сжатия                             : С потерями

Аудио
Идентификатор                            : 0 (0x0)
Формат                                   : MPEG Audio
Профиль формата                          : Version 1
Продолжительность                        : 59 м. 42 с.
Каналы                                   : 2 канала
Частота                                  : 48,0 КГц
Метод сжатия                             : С потерями

Меню
Продолжительность                        : 59 м. 42 с.
00:00:00.000                             : Chapter 1
List (Audio)                             : 0

Общее
Полное имя                               : E:\Фильмы\Документальные фильмы\Чувственная математика 2012\Чувственная математика (2012) DVD5\VIDEO_TS\VTS_01_0.IFO
Формат                                   : DVD Video
Профиль формата                          : Program
Размер файла                             : 40,0 Кбайт
Продолжительность                        : 59 м. 42 с.
Режим общего битрейта                    : Переменный
Общий поток                              : 91 бит/сек

Видео
Идентификатор                            : 224 (0xE0)
Формат                                   : MPEG Video
Версия формата                           : Version 2
Продолжительность                        : 59 м. 42 с.
Вид битрейта                             : Переменный
Ширина                                   : 720 пикселей
Высота                                   : 576 пикселей
Соотношение сторон                       : 16:9
Частота кадров                           : 25,000 кадров/сек
Стандарт вещания                         : PAL
Метод сжатия                             : С потерями

Аудио
Идентификатор                            : 0 (0x0)
Формат                                   : MPEG Audio
Профиль формата                          : Version 1
Продолжительность                        : 59 м. 42 с.
Каналы                                   : 2 канала
Частота                                  : 48,0 КГц
Метод сжатия                             : С потерями

Меню
Продолжительность                        : 59 м. 42 с.
00:00:00.000                             : Chapter 1
List (Audio)                             : 0

Общее
Полное имя                               : E:\Фильмы\Документальные фильмы\Чувственная математика 2012\Чувственная математика (2012) DVD5\VIDEO_TS\VTS_01_1.VOB
Формат                                   : MPEG-PS
Размер файла                             : 1024 Мбайт
Продолжительность                        : 22 м. 44 с.
Режим общего битрейта                    : Переменный
Общий поток                              : 6293 Кбит/сек

Видео
Идентификатор                            : 224 (0xE0)
Формат                                   : MPEG Video
Версия формата                           : Version 2
Профиль формата                          : Main@Main
Параметр BVOP формата                    : Да
Параметр матрицы формата                 : Выборочная
Параметр GOP формата                     : M=3, N=15
Структура изображения                    : Frame
Продолжительность                        : 22 м. 44 с.
Вид битрейта                             : Переменный
Битрейт                                  : 5976 Кбит/сек
Максимальный битрейт                     : 8800 Кбит/сек
Ширина                                   : 720 пикселей
Высота                                   : 576 пикселей
Соотношение сторон                       : 16:9
Частота кадров                           : 25,000 кадров/сек
Стандарт вещания                         : PAL
Цветовое пространство                    : YUV
Субдискретизация насыщенности            : 4:2:0
Битовая глубина                          : 8 бит
Тип развёртки                            : Чересстрочная
Порядок развёртки                        : Верхнее поле первое
Метод сжатия                             : С потерями
Бит/(Пиксели*Кадры)                      : 0.576
Временной код первого кадра              : 01:00:00:00
Оригинал временного кода                 : Group of pictures header
GOP, открыто/закрыто                     : Открыто
GOP, открыто/закрыто на первом кадре     : Закрыто
Размер потока                            : 972 Мбайт (95%)

Аудио
Идентификатор                            : 192 (0xC0)
Формат                                   : MPEG Audio
Версия формата                           : Version 1
Профиль формата                          : Layer 2
Продолжительность                        : 22 м. 44 с.
Вид битрейта                             : Постоянный
Битрейт                                  : 192 Кбит/сек
Каналы                                   : 2 канала
Частота                                  : 48,0 КГц
Метод сжатия                             : С потерями
Размер потока                            : 31,2 Мбайт (3%)

Меню

Общее
Полное имя                               : E:\Фильмы\Документальные фильмы\Чувственная математика 2012\Чувственная математика (2012) DVD5\VIDEO_TS\VTS_01_2.VOB
Формат                                   : MPEG-PS
Размер файла                             : 1024 Мбайт
Продолжительность                        : 22 м. 43 с.
Режим общего битрейта                    : Переменный
Общий поток                              : 6301 Кбит/сек

Видео
Идентификатор                            : 224 (0xE0)
Формат                                   : MPEG Video
Версия формата                           : Version 2
Профиль формата                          : Main@Main
Параметр BVOP формата                    : Да
Параметр матрицы формата                 : Выборочная
Параметр GOP формата                     : M=3, N=15
Структура изображения                    : Frame
Продолжительность                        : 22 м. 42 с.
Вид битрейта                             : Переменный
Битрейт                                  : 5984 Кбит/сек
Максимальный битрейт                     : 8800 Кбит/сек
Ширина                                   : 720 пикселей
Высота                                   : 576 пикселей
Соотношение сторон                       : 16:9
Частота кадров                           : 25,000 кадров/сек
Стандарт вещания                         : PAL
Цветовое пространство                    : YUV
Субдискретизация насыщенности            : 4:2:0
Битовая глубина                          : 8 бит
Тип развёртки                            : Чересстрочная
Порядок развёртки                        : Верхнее поле первое
Метод сжатия                             : С потерями
Бит/(Пиксели*Кадры)                      : 0.577
Временной код первого кадра              : 01:22:45:02
Оригинал временного кода                 : Group of pictures header
GOP, открыто/закрыто                     : Открыто
Размер потока                            : 972 Мбайт (95%)

Аудио
Идентификатор                            : 192 (0xC0)
Формат                                   : MPEG Audio
Версия формата                           : Version 1
Профиль формата                          : Layer 2
Продолжительность                        : 22 м. 43 с.
Вид битрейта                             : Постоянный
Битрейт                                  : 192 Кбит/сек
Каналы                                   : 2 канала
Частота                                  : 48,0 КГц
Метод сжатия                             : С потерями
Задержка видео                           : -120 мс.
Размер потока                            : 31,2 Мбайт (3%)

Меню

Общее
Полное имя                               : E:\Фильмы\Документальные фильмы\Чувственная математика 2012\Чувственная математика (2012) DVD5\VIDEO_TS\VTS_01_3.VOB
Формат                                   : MPEG-PS
Размер файла                             : 654 Мбайт
Продолжительность                        : 14 м. 14 с.
Режим общего битрейта                    : Переменный
Общий поток                              : 6422 Кбит/сек

Видео
Идентификатор                            : 224 (0xE0)
Формат                                   : MPEG Video
Версия формата                           : Version 2
Профиль формата                          : Main@Main
Параметр BVOP формата                    : Да
Параметр матрицы формата                 : Выборочная
Параметр GOP формата                     : M=3, N=15
Структура изображения                    : Frame
Продолжительность                        : 14 м. 14 с.
Вид битрейта                             : Переменный
Битрейт                                  : 6102 Кбит/сек
Максимальный битрейт                     : 8800 Кбит/сек
Ширина                                   : 720 пикселей
Высота                                   : 576 пикселей
Соотношение сторон                       : 16:9
Частота кадров                           : 25,000 кадров/сек
Стандарт вещания                         : PAL
Цветовое пространство                    : YUV
Субдискретизация насыщенности            : 4:2:0
Битовая глубина                          : 8 бит
Тип развёртки                            : Чересстрочная
Порядок развёртки                        : Верхнее поле первое
Метод сжатия                             : С потерями
Бит/(Пиксели*Кадры)                      : 0.589
Временной код первого кадра              : 01:45:28:11
Оригинал временного кода                 : Group of pictures header
Размер потока                            : 621 Мбайт (95%)

Аудио
Идентификатор                            : 192 (0xC0)
Формат                                   : MPEG Audio
Версия формата                           : Version 1
Профиль формата                          : Layer 2
Продолжительность                        : 14 м. 14 с.
Вид битрейта                             : Постоянный
Битрейт                                  : 192 Кбит/сек
Каналы                                   : 2 канала
Частота                                  : 48,0 КГц
Метод сжатия                             : С потерями
Задержка видео                           : -64 мс.
Размер потока                            : 19,6 Мбайт (3%)

Меню


 
Не забывайте говорить Спасибо. Не уходите с раздачи!   
Торрент: Зарегистрирован [03 ноя 2016, 21:41] Для скачивания .torrent
необходима регистрация
Или скачать с помощью
MediaGet
Статус:
Проверен
 
.torrent скачан: 1 раз
Хэш: 9c8e4329fb51141efb707d9c74bd1493d5b70022
Размер: 2.64 ГБ (2 833 551 360 байт)
Стать Автором раздачи
 
 
Раздал: 100 ГБ
Скачал: 0 байт
Ратио: Seed.
Сообщения: 185281
Зарегистрирован: 09 апр 2015, 20:00


  • Похожие торренты
    Ответы
    Просмотры
    Последнее сообщение

Вернуться в Документальные (DVD)

Кто сейчас на конференции

Сейчас эту тему просматривают: нет зарегистрированных пользователей и гости: 1

Ресурс не предоставляет электронные версии произведений, а занимается лишь коллекционированием и каталогизацией ссылок, присылаемых и публикуемых на форуме нашими читателями. Если вы являетесь правообладателем какого-либо представленного материала и не желаете чтобы ссылка на него находилась в нашем каталоге, свяжитесь с нами и мы незамедлительно удалим её. Файлы для обмена на трекере предоставлены пользователями сайта, и администрация не несёт ответственности за их содержание. Просьба не заливать файлы, защищенные авторскими правами, а также файлы нелегального содержания!