Discovery. Дороги России: Трасса А-161: Саянский перевал HDTVRip [720p-LQ]

 
 Статистика раздачи 
Размер: 671.62 МБ   |  Зарегистрирован: 31 окт 2016, 17:08   |   .torrent скачан: 3 раз
Сидеров: 1  [ 0 байт/сек ]     Личеров: 0  [ 0 байт/сек ]  
  

Discovery. Дороги России: Трасса А-161: Саянский перевал HDTVRip [720p-LQ]

Сообщение explosiveone » 31 окт 2016, 17:08

Discovery. Дороги России: Трасса А-161: Саянский перевал HDTVRip [720p-LQ]

Телекомпания: Discovery Channel
Жанр: Телепередача, Документальный

Описание:
Трасса А161 связывает между собой Хакассию и Тыву. Начинается дорога в столице Хакасии городе Абакан, как ответвление от трассы М54 «Енисей» и идет в юго-западном направлении по степной части Хакасии. Далее, после города Абаза, пейзаж начинается меняться. Трасса А-161 проходит по предгорьям Западного Саяна. После этого дорога преодолевает Сотый перевал и, следуя по территории Республики Тыва, через 100 км заканчивается в Ак-Довураке. Путь от Абакана до Ак-Довурака проходит по равнинной, горной, степной и лесистой местности.

Продолжительность: 00:44:00
Качество видео: HDTVRip

Видео: Xvid, 1280х720, ~2000 kb/s
Аудио: MP3, 2 ch, 128 kb/s
Код: Выделить всё
Format                           : AVI
Format/Info                      : Audio Video Interleave
File size                        : 672 MiB
Duration                         : 44mn 0s
Overall bit rate                 : 2 134 Kbps
Writing application              : MEncoder SVN-r33883(20110719-gcc4.5.2)
Writing library                  : MPlayer

Video
ID                               : 0
Format                           : MPEG-4 Visual
Format profile                   : Advanced Simple@L5
Format settings, BVOP            : 2
Format settings, QPel            : No
Format settings, GMC             : No warppoints
Format settings, Matrix          : Default (H.263)
Codec ID                         : XVID
Codec ID/Hint                    : XviD
Duration                         : 44mn 0s
Bit rate                         : 1 994 Kbps
Width                            : 1 280 pixels
Height                           : 720 pixels
Display aspect ratio             : 16:9
Frame rate                       : 25.000 fps
Color space                      : YUV
Chroma subsampling               : 4:2:0
Bit depth                        : 8 bits
Scan type                        : Progressive
Compression mode                 : Lossy
Bits/(Pixel*Frame)               : 0.087
Stream size                      : 627 MiB (93%)
Writing library                  : XviD 1.2.1 (UTC 2008-12-04)

Audio
ID                               : 1
Format                           : MPEG Audio
Format version                   : Version 1
Format profile                   : Layer 3
Mode                             : Joint stereo
Mode extension                   : MS Stereo
Codec ID                         : 55
Codec ID/Hint                    : MP3
Duration                         : 44mn 0s
Bit rate mode                    : Constant
Bit rate                         : 128 Kbps
Channel(s)                       : 2 channels
Sampling rate                    : 44.1 KHz
Compression mode                 : Lossy
Delay relative to video          : 40ms
Stream size                      : 40.3 MiB (6%)
Alignment                        : Aligned on interleaves
Interleave, duration             : 26 ms (0.65 video frame)
Interleave, preload duration     : 522 ms
Writing library                  : LAME3.98.4

Скриншоты:



Время раздачи: 24/7 (круглосуточно) до первых 5-ти сидов - потом по возможности (до появления первых 3-5 скачавших) (до появления первых 3-5 скачавших)
 
Не забывайте говорить Спасибо. Не уходите с раздачи!   
Торрент: Зарегистрирован [31 окт 2016, 17:08] Для скачивания .torrent
необходима регистрация
Или скачать с помощью
MediaGet
Статус:
Проверен
 
.torrent скачан: 3 раз
Хэш: eaae3a6fcc17db6dad114b12747b1e3df71651ea
Размер: 671.62 МБ (704 246 744 байт)
Стать Автором раздачи
 
 
Раздал: 100 ГБ
Скачал: 0 байт
Ратио: Seed.
Сообщения: 93563
Зарегистрирован: 09 апр 2015, 22:31


  • Похожие торренты
    Ответы
    Просмотры
    Последнее сообщение

Вернуться в Discovery

Ресурс не предоставляет электронные версии произведений, а занимается лишь коллекционированием и каталогизацией ссылок, присылаемых и публикуемых на форуме нашими читателями. Если вы являетесь правообладателем какого-либо представленного материала и не желаете чтобы ссылка на него находилась в нашем каталоге, свяжитесь с нами и мы незамедлительно удалим её. Файлы для обмена на трекере предоставлены пользователями сайта, и администрация не несёт ответственности за их содержание. Просьба не заливать файлы, защищенные авторскими правами, а также файлы нелегального содержания!
cron