Три богатыря. Гексалогия. (2004 / 2006 / 2007 / 2010 / 2012 / 2014) BDRip [H.264] [MP4|1280x692|1280x720]

 
 Статистика раздачи 
Размер: 13.89 ГБ   |  Зарегистрирован: 30 окт 2016, 11:05   |   .torrent скачан: 2 раз
Сидеров: 1  [ 0 байт/сек ]     Личеров: 0  [ 0 байт/сек ]  
  

Три богатыря. Гексалогия. (2004 / 2006 / 2007 / 2010 / 2012 / 2014) BDRip [H.264] [MP4|1280x692|1280x720]

Сообщение explosiveone » 30 окт 2016, 11:05

Три богатыря. Гексалогия. (2004 / 2006 / 2007 / 2010 / 2012 / 2014) BDRip

Сборник мультфильмов о приключениях «Трех Богатырей».

Год выхода:
2004, 2006, 2007, 2010, 2012, 2014
Производство: Россия / Кинокомпания CTB, Анимационная студия Мельница
Жанр: Рисованная анимация, Комедия, Семейный, Мультфильм, Мюзикл, Приключения, Фэнтези

Режиссер: Константин Бронзит, Илья Максимов, Владимир Торопчин, Сергей Глезин, Константин Феоктистов

Продолжительность: 01:18:51 | 01:08:08 | 01:19:31 | 01:16:32 | 01:11:18 | 01:14:43
Перевод: Не требуется (русский, оригинальный)
Субтитры: Отсутствуют
Качество видео: BDRip
Релиз от: NNMClub

Видео: AVC/H.264 (Main@L3.1), 1280x692 (1.85:1) | 1280x720 (16:9), 4300 Кбит/сек
Аудио: AAC, 2 канала, 128 Кбит/сек - русский (оригинальный)

Описание:
Сборник полнометражных мультипликационных фильмов студии анимационного кино «Мельница» о приключениях трех богатырей:
Алёши Поповича, Добрыни Никитича и Ильи Муромца.
В сборник вошли следующие мультфильмы:
Алеша Попович и Тугарин Змей, Добрыня Никитич и Змей Горыныч, Илья Муромец и Соловей Разбойник, Три богатыря и Шамаханская царица, Три богатыря на дальних берегах и Три богатыря: Ход конем.
Алеша Попович и Тугарин Змей (2004) BDRip [720p]

Производство: Россия / Кинокомпания CTB, Анимационная студия Мельница
Жанр: Рисованная анимация, Комедия, Семейный, Мультфильм, Мюзикл, Приключения, Фэнтези

Режиссер: Константин Бронзит
Роли озвучивали: Олег Куликович, Лия Медведева, Дмитрий Высоцкий, Анатолий Петров, Наталья Данилова, Сергей Маковецкий, Иван Краско, Татьяна Иванова, Михаил Черняк, Константин Бронзит и др..

Описание:
В древнем русском городе Ростове родился в поповской семье сын. Назвали его родители Алешей. А когда он вырос и стал богатырем, то совершил такие подвиги, что стал героем русских былин Алешей Поповичем. Только подвиги его начались с конфуза…
Подступила к Ростову тугарская вражеская орда во главе с Тугарином Змеем и потребовала, чтобы жители города выплатили дань. Поповский сын предложил план действий. Народ этот план одобрил и собрал гору золота. Алеша же умудрился собственный план «благополучно» провалить, да с каким треском!
И золото упустил, и полгорода разрушил. После чего поклялся — Тугарина Змея изловить и золото вернуть. Отправился Алеша Попович в путь вместе с дедом Тихоном, который мальчика вырастил и воспитал, а чуть позже компанию им составили говорящий конь Юлий, купленный у цыган, почти 16-летняя красавица Любава, ее бабка и их ослик Моисей…


Возраст: 12+ (зрителям, достигшим 12 лет)

Релиз от: NNMClub
Продолжительность: 01:18:51
Качество видео: BDRip
Перевод: Оригинальный
Язык озвучки: Русский
Субтитры: Отсутствуют

Видео: AVC/H.264 (Main@L3.1), 1280x692 (1.85:1), 4300 Кбит/сек
Аудио: AAC, 2 канала, 128 Кбит/сек - русский (оригинальный)
Код:
General
Complete name                            : C:\DGI\Герои Былин-Три Богатыря (2004-2014)\Алеша.Попович.и.Тугарин.Змей.2004.720p.BDRip.AAC.h264.NNMclub.mp4
Format                                   : MPEG-4
Format profile                           : Base Media / Version 2
Codec ID                                 : mp42 (mp42/isom)
File size                                : 2.44 GiB
Duration                                 : 1h 18mn
Overall bit rate mode                    : Variable
Overall bit rate                         : 4 424 Kbps
Movie name                               : Алеша Попович и Тугарин Змей
Performer                                : Константин Бронзит
Director                                 : Константин Бронзит
Actor                                    : Олег Куликович / Дмитрий Высоцкий / Анатолий Петров / Сергей Маковецкий / Лия Медведева
Genre                                    : Русское кино
ContentType                              : Short Film
Description                              : В древнем русском городе Ростове родился в поповской семье сын. Назвали его родители Алешей. А когда
Recorded date                            : 2004-12-23
Encoded date                             : UTC 2016-10-29 07:15:57
Tagged date                              : UTC 2016-10-29 07:25:37
Copyright                                : © 2004 Мельница
Cover                                    : Yes
Rating                                   : None
LongDescription                          : В древнем русском городе Ростове родился в поповской семье сын. Назвали его родители Алешей. А когда он вырос и стал богатырем, то совершил такие подвиги, что стал героем русских былин Алешей Поповичем. Только подвиги его начались с конфуза…
HDVideo                                  : Yes
AppleStoreCountry                        : Unknown Country
AppleStoreCatalogID                      : 952797968
ContentRating                            : ru-movie|12+|200|

Video
ID                                       : 1
Format                                   : AVC
Format/Info                              : Advanced Video Codec
Format profile                           :
Format settings, CABAC                   : No
Format settings, ReFrames                : 3 frames
Codec ID                                 : avc1
Codec ID/Info                            : Advanced Video Coding
Duration                                 : 1h 18mn
Bit rate                                 : 4 300 Kbps
Width                                    : 1 280 pixels
Height                                   : 692 pixels
Display aspect ratio                     : 1.85:1
Frame rate mode                          : Variable
Frame rate                               : 23.976 (24000/1001) fps
Minimum frame rate                       : 23.810 fps
Maximum frame rate                       : 24.390 fps
Color space                              : YUV
Chroma subsampling                       : 4:2:0
Bit depth                                : 8 bits
Scan type                                : Progressive
Bits/(Pixel*Frame)                       : 0.202
Stream size                              : 2.36 GiB (97%)
Writing library                          : x264 core 148 r2721+55 e19946b t_mod_Custom [8-bit@all X86_64]
Encoding settings                        : cabac=0 / ref=3 / deblock=1:0:0 / analyse=0x1:0x111 / me=umh / subme=7 / psy=1 / fade_compensate=0.00 / psy_rd=0.65:0.20 / mixed_ref=1 / me_range=32 / chroma_me=1 / trellis=2 / 8x8dct=0 / cqm=0 / deadzone=21,11 / fast_pskip=0 / chroma_qp_offset=-3 / threads=18 / lookahead_threads=3 / sliced_threads=0 / nr=0 / decimate=1 / interlaced=0 / bluray_compat=0 / constrained_intra=0 / fgo=0 / bframes=3 / b_pyramid=0 / b_adapt=2 / b_bias=0 / direct=3 / weightb=1 / open_gop=0 / weightp=2 / keyint=240 / keyint_min=23 / scenecut=40 / intra_refresh=0 / rc_lookahead=64 / rc=2pass / mbtree=1 / bitrate=4300 / ratetol=1.0 / qcomp=0.60 / qpmin=0:0:0 / qpmax=69:69:69 / qpstep=4 / cplxblur=20.0 / qblur=0.5 / vbv_maxrate=14000 / vbv_bufsize=14000 / nal_hrd=none / filler=0 / ip_ratio=1.40 / aq=3:0.60 / aq-sensitivity=10.00 / aq-factor=1.00:1.00:1.00 / aq2=1:0.90 / aq2-sensitivity=15.00 / aq2-factor=1.00:1.00:1.00 / aq3=4:[0.50:0.50]:[0.50:0.50]:[0.50:0.50]:[0.50:0.50] / aq3-sensitivity=10.00 / aq3-factor=[1.00:1.00]:[1.00:1.00]:[1.00:1.00] / aq3-boundary=192:64:24
Encoded date                             : UTC 2016-10-29 07:15:57
Tagged date                              : UTC 2016-10-29 07:22:26
Color range                              : Limited
Color primaries                          : BT.709
Transfer characteristics                 : BT.709
Matrix coefficients                      : BT.709
Menus                                    : 3

Audio
ID                                       : 2
Format                                   : AAC
Format/Info                              : Advanced Audio Codec
Format profile                           : LC
Codec ID                                 : 40
Duration                                 : 1h 18mn
Source duration                          : 1h 18mn
Bit rate mode                            : Variable
Bit rate                                 : 128 Kbps
Maximum bit rate                         : 132 Kbps
Channel(s)                               : 2 channels
Channel positions                        : Front: L R
Sampling rate                            : 48.0 KHz
Frame rate                               : 46.875 fps (1024 spf)
Compression mode                         : Lossy
Stream size                              : 72.2 MiB (3%)
Source stream size                       : 72.2 MiB (3%)
Language                                 : Russian
Default                                  : Yes
Alternate group                          : 1
Encoded date                             : UTC 2016-10-29 07:15:57
Tagged date                              : UTC 2016-10-29 07:22:26

Menu
ID                                       : 3
Codec ID                                 : text
Duration                                 : 1h 18mn
Language                                 : English
Encoded date                             : UTC 2016-10-29 07:22:26
Tagged date                              : UTC 2016-10-29 07:22:26
Bit rate mode                            : CBR
Menu For                                 : 1
00:00:00.000                             : 00:00:00.000
00:06:12.622                             : 00:06:12.622
00:12:01.387                             : 00:12:01.387
00:18:10.006                             : 00:18:10.006
00:23:27.031                             : 00:23:27.031
00:31:45.987                             : 00:31:45.987
00:36:29.437                             : 00:36:29.437
00:42:02.603                             : 00:42:02.603
00:47:24.800                             : 00:47:24.800
00:52:50.918                             : 00:52:50.918
01:00:25.121                             : 01:00:25.121
01:04:16.436                             : 01:04:16.436


Скриншоты:


Добрыня Никитич и Змей Горыныч (2006) BDRip [720p]

#77Производство: Россия / Кинокомпания CTB, Анимационная студия Мельница
Жанр: Рисованная анимация, Комедия, Семейный, Мультфильм, Мюзикл, Приключения, Фэнтези

Режиссер: Илья Максимов
Роли озвучивали: Валерий Соловьев, Юрий Тарасов, Сергей Маковецкий, Андрей Толубеев, Екатерина Гороховская, Олег Куликович, Анатолий Петров, Наталья Данилова и др..

Описание:
Пока храбрый воин Добрыня Никитич собирал с тугар дань, в Киеве похитили любимую племянницу князя – Забаву Путятичну. Вопреки воле князя, Добрыня с женихом Забавы Елисеем отправляется на ее поиски. В пути их ждет много приключений…


Возраст: 0+ (для любой зрительской аудитории)

Релиз от: NNMClub
Продолжительность: 01:08:08
Качество видео: BDRip
Перевод: Оригинальный
Язык озвучки: Русский
Субтитры: Отсутствуют

Видео: AVC/H.264 (Main@L3.1), 1280x692 (1.85:1), 4300 Кбит/сек
Аудио: AAC, 2 канала, 128 Кбит/сек - русский (оригинальный)
Код:
General
Complete name                            : C:\DGI\Герои Былин-Три Богатыря (2004-2014)\Добрыня.Никитич.и.Змей.Горыныч.2006.720p.BDRip.AAC.h264.NNMclub.mp4
Format                                   : MPEG-4
Format profile                           : Base Media / Version 2
Codec ID                                 : mp42 (mp42/isom)
File size                                : 2.11 GiB
Duration                                 : 1h 8mn
Overall bit rate mode                    : Variable
Overall bit rate                         : 4 429 Kbps
Movie name                               : Добрыня Никитич и Змей Горыныч
Performer                                : Илья Максимов
Director                                 : Илья Максимов
Actor                                    : Валерий Соловьев / Юрий Тарасов / Сергей Маковецкий / Андрей Толубеев / Екатерина Гороховская
Genre                                    : Русское кино
ContentType                              : Short Film
Description                              : Пока храбрый воин Добрыня Никитич собирал с тугар дань, в Киеве похитили любимую племянницу князя —
Recorded date                            : 2006-03-16
Encoded date                             : UTC 2016-10-29 14:57:48
Tagged date                              : UTC 2016-10-29 16:13:01
Copyright                                : © 2006 Мельница
Cover                                    : Yes
Rating                                   : None
LongDescription                          : Пока храбрый воин Добрыня Никитич собирал с тугар дань, в Киеве похитили любимую племянницу князя — Забаву Путятичну. Вопреки воле князя, Добрыня с женихом Забавы Елисеем отправляется на ее поиски. В пути их ждет много приключений…
HDVideo                                  : Yes
AppleStoreCountry                        : Unknown Country
AppleStoreCatalogID                      : 953139616
ContentRating                            : ru-movie|0+|000|

Video
ID                                       : 1
Format                                   : AVC
Format/Info                              : Advanced Video Codec
Format profile                           :
Format settings, CABAC                   : No
Format settings, ReFrames                : 3 frames
Codec ID                                 : avc1
Codec ID/Info                            : Advanced Video Coding
Duration                                 : 1h 8mn
Bit rate                                 : 4 300 Kbps
Width                                    : 1 280 pixels
Height                                   : 692 pixels
Display aspect ratio                     : 1.85:1
Frame rate mode                          : Variable
Frame rate                               : 23.976 (24000/1001) fps
Minimum frame rate                       : 23.810 fps
Maximum frame rate                       : 24.390 fps
Color space                              : YUV
Chroma subsampling                       : 4:2:0
Bit depth                                : 8 bits
Scan type                                : Progressive
Bits/(Pixel*Frame)                       : 0.202
Stream size                              : 2.04 GiB (97%)
Writing library                          : x264 core 148 r2721+55 e19946b t_mod_Custom [8-bit@all X86_64]
Encoding settings                        : cabac=0 / ref=3 / deblock=1:0:0 / analyse=0x1:0x111 / me=umh / subme=7 / psy=1 / fade_compensate=0.00 / psy_rd=0.65:0.20 / mixed_ref=1 / me_range=32 / chroma_me=1 / trellis=2 / 8x8dct=0 / cqm=0 / deadzone=21,11 / fast_pskip=0 / chroma_qp_offset=-3 / threads=18 / lookahead_threads=3 / sliced_threads=0 / nr=0 / decimate=1 / interlaced=0 / bluray_compat=0 / constrained_intra=0 / fgo=0 / bframes=3 / b_pyramid=0 / b_adapt=2 / b_bias=0 / direct=3 / weightb=1 / open_gop=0 / weightp=2 / keyint=240 / keyint_min=23 / scenecut=40 / intra_refresh=0 / rc_lookahead=64 / rc=2pass / mbtree=1 / bitrate=4300 / ratetol=1.0 / qcomp=0.60 / qpmin=0:0:0 / qpmax=69:69:69 / qpstep=4 / cplxblur=20.0 / qblur=0.5 / vbv_maxrate=14000 / vbv_bufsize=14000 / nal_hrd=none / filler=0 / ip_ratio=1.40 / aq=3:0.60 / aq-sensitivity=10.00 / aq-factor=1.00:1.00:1.00 / aq2=1:0.90 / aq2-sensitivity=15.00 / aq2-factor=1.00:1.00:1.00 / aq3=4:[0.50:0.50]:[0.50:0.50]:[0.50:0.50]:[0.50:0.50] / aq3-sensitivity=10.00 / aq3-factor=[1.00:1.00]:[1.00:1.00]:[1.00:1.00] / aq3-boundary=192:64:24
Encoded date                             : UTC 2016-10-29 14:57:48
Tagged date                              : UTC 2016-10-29 15:04:11
Color range                              : Limited
Color primaries                          : BT.709
Transfer characteristics                 : BT.709
Matrix coefficients                      : BT.709
Menus                                    : 4

Audio
ID                                       : 2
Format                                   : AAC
Format/Info                              : Advanced Audio Codec
Format profile                           : LC
Codec ID                                 : 40
Duration                                 : 1h 8mn
Source duration                          : 1h 8mn
Bit rate mode                            : Variable
Bit rate                                 : 128 Kbps
Maximum bit rate                         : 134 Kbps
Channel(s)                               : 2 channels
Channel positions                        : Front: L R
Sampling rate                            : 48.0 KHz
Frame rate                               : 46.875 fps (1024 spf)
Compression mode                         : Lossy
Stream size                              : 62.3 MiB (3%)
Source stream size                       : 62.3 MiB (3%)
Language                                 : Russian
Default                                  : Yes
Alternate group                          : 1
Encoded date                             : UTC 2016-10-29 14:57:48
Tagged date                              : UTC 2016-10-29 15:04:11

Menu
ID                                       : 4
Codec ID                                 : text
Duration                                 : 1h 8mn
Language                                 : English
Encoded date                             : UTC 2016-10-29 15:04:11
Tagged date                              : UTC 2016-10-29 15:04:11
Bit rate mode                            : CBR
Menu For                                 : 1
00:00:00.000                             : 00:00:00.000
00:05:01.176                             : 00:05:01.176
00:09:28.317                             : 00:09:28.318
00:15:43.067                             : 00:15:43.067
00:20:02.117                             : 00:20:02.118
00:25:12.136                             : 00:25:12.136
00:29:37.025                             : 00:29:37.025
00:35:37.218                             : 00:35:37.218
00:39:56.436                             : 00:39:56.436
00:45:05.494                             : 00:45:05.494
00:49:34.763                             : 00:49:34.763
00:55:26.949                             : 00:55:26.949


Скриншоты:


Илья Муромец и Соловей Разбойник (2007) BDRip [720p]

#77Производство: Россия / Кинокомпания CTB, Анимационная студия Мельница
Жанр: Рисованная анимация, Комедия, Семейный, Мультфильм, Мюзикл, Приключения, Фэнтези

Режиссер: Владимир Торопчин
Роли озвучивали: Валерий Соловьев, Екатерина Гороховская, Анатолий Петров, Олег Табаков, Сергей Маковецкий, Андрей Толубеев, Олег Куликович, Юрий Тарасов, Наталья Данилова и др..

Описание:
Славится земля русская богатырями богатырскими да разбойниками разбойничьими… А сверху всего князь княжеский сидит, за всем следит и порядок наводит, если нужно. Да только не всегда выходит у князя так, как нужно – правильно. Вот и сейчас – с богатырём поругался да от Соловья Разбойника урон потерпел немалый: увёл бандит окаянный казну государственную прямо из-под носа! Что делать князю? А ничего особенного – на то он и князь, чтоб из любой ситуации выход найти! Вот и отправились князь с Ильёй на поиски похищенного, а за ними вслед увязалась корреспондентка летописи «Новая береста». А дорога непростая выдалась, до самого Царьграда довела, где встретил их Император Византийский, да только незадача вышла – повздорили наши герои с императором этим, и заключил он против Князя Киевского и Земель русских союз с Соловьем Разбойником…


Возраст: 12+ (зрителям, достигшим 12 лет)

Релиз от: NNMClub
Продолжительность: 01:19:31
Качество видео: BDRip
Перевод: Оригинальный
Язык озвучки: Русский
Субтитры: Отсутствуют

Видео: AVC/H.264 (Main@L3.1), 1280x692 (1.85:1), 4300 Кбит/сек
Аудио: AAC, 2 канала, 128 Кбит/сек - русский (оригинальный)
Код:
General
Complete name                            : C:\DGI\Герои Былин-Три Богатыря (2004-2014)\Илья.Муромец.и.Соловей.Разбойник.2007.720p.BDRip.AAC.h264.NNMclub.mp4
Format                                   : MPEG-4
Format profile                           : Base Media / Version 2
Codec ID                                 : mp42 (mp42/isom)
File size                                : 2.46 GiB
Duration                                 : 1h 19mn
Overall bit rate mode                    : Variable
Overall bit rate                         : 4 429 Kbps
Movie name                               : Илья Муромец и Соловей Разбойник
Performer                                : Владимир Торопчин
Director                                 : Владимир Торопчин
Actor                                    : Валерий Соловьев / Екатерина Гороховская / Сергей Маковецкий / Олег Табаков / Андрей Толубеев
Producer                                 : Сергей Сельянов / Александр Боярский
Genre                                    : Русское кино
ContentType                              : Short Film
Description                              : Славится земля русская богатырями богатырскими да разбойниками разбойничьими… А сверху всего князь
Recorded date                            : 2008-01-17
Encoded date                             : UTC 2016-10-29 15:20:14
Tagged date                              : UTC 2016-10-29 15:37:28
Copyright                                : © 2007 Мельница
Cover                                    : Yes
Rating                                   : None
LongDescription                          : Славится земля русская богатырями богатырскими да разбойниками разбойничьими… А сверху всего князь княжеский сидит, за всем следит и порядок наводит, если нужно. Да только не всегда выходит у князя так, как нужно — правильно. Вот и сейчас — с богатырём поругался да от Соловья Разбойника урон потерпел немалый: увёл бандит окаянный казну государственную прямо из-под носа!
HDVideo                                  : Yes
AppleStoreCountry                        : Unknown Country
AppleStoreCatalogID                      : 952798586
ContentRating                            : ru-movie|12+|200|

Video
ID                                       : 1
Format                                   : AVC
Format/Info                              : Advanced Video Codec
Format profile                           :
Format settings, CABAC                   : No
Format settings, ReFrames                : 3 frames
Codec ID                                 : avc1
Codec ID/Info                            : Advanced Video Coding
Duration                                 : 1h 19mn
Bit rate                                 : 4 300 Kbps
Width                                    : 1 280 pixels
Height                                   : 692 pixels
Display aspect ratio                     : 1.85:1
Frame rate mode                          : Variable
Frame rate                               : 23.976 (24000/1001) fps
Minimum frame rate                       : 23.810 fps
Maximum frame rate                       : 24.390 fps
Color space                              : YUV
Chroma subsampling                       : 4:2:0
Bit depth                                : 8 bits
Scan type                                : Progressive
Bits/(Pixel*Frame)                       : 0.202
Stream size                              : 2.39 GiB (97%)
Writing library                          : x264 core 148 r2721+55 e19946b t_mod_Custom [8-bit@all X86_64]
Encoding settings                        : cabac=0 / ref=3 / deblock=1:0:0 / analyse=0x1:0x111 / me=umh / subme=7 / psy=1 / fade_compensate=0.00 / psy_rd=0.65:0.20 / mixed_ref=1 / me_range=32 / chroma_me=1 / trellis=2 / 8x8dct=0 / cqm=0 / deadzone=21,11 / fast_pskip=0 / chroma_qp_offset=-3 / threads=18 / lookahead_threads=3 / sliced_threads=0 / nr=0 / decimate=1 / interlaced=0 / bluray_compat=0 / constrained_intra=0 / fgo=0 / bframes=3 / b_pyramid=0 / b_adapt=2 / b_bias=0 / direct=3 / weightb=1 / open_gop=0 / weightp=2 / keyint=240 / keyint_min=23 / scenecut=40 / intra_refresh=0 / rc_lookahead=64 / rc=2pass / mbtree=1 / bitrate=4300 / ratetol=1.0 / qcomp=0.60 / qpmin=0:0:0 / qpmax=69:69:69 / qpstep=4 / cplxblur=20.0 / qblur=0.5 / vbv_maxrate=14000 / vbv_bufsize=14000 / nal_hrd=none / filler=0 / ip_ratio=1.40 / aq=3:0.60 / aq-sensitivity=10.00 / aq-factor=1.00:1.00:1.00 / aq2=1:0.90 / aq2-sensitivity=15.00 / aq2-factor=1.00:1.00:1.00 / aq3=4:[0.50:0.50]:[0.50:0.50]:[0.50:0.50]:[0.50:0.50] / aq3-sensitivity=10.00 / aq3-factor=[1.00:1.00]:[1.00:1.00]:[1.00:1.00] / aq3-boundary=192:64:24
Encoded date                             : UTC 2016-10-29 15:20:14
Tagged date                              : UTC 2016-10-29 15:34:01
Color range                              : Limited
Color primaries                          : BT.709
Transfer characteristics                 : BT.709
Matrix coefficients                      : BT.709

Audio
ID                                       : 2
Format                                   : AAC
Format/Info                              : Advanced Audio Codec
Format profile                           : LC
Codec ID                                 : 40
Duration                                 : 1h 19mn
Source duration                          : 1h 19mn
Bit rate mode                            : Variable
Bit rate                                 : 128 Kbps
Maximum bit rate                         : 133 Kbps
Channel(s)                               : 2 channels
Channel positions                        : Front: L R
Sampling rate                            : 48.0 KHz
Frame rate                               : 46.875 fps (1024 spf)
Compression mode                         : Lossy
Stream size                              : 72.8 MiB (3%)
Source stream size                       : 72.8 MiB (3%)
Language                                 : Russian
Default                                  : Yes
Alternate group                          : 1
Encoded date                             : UTC 2016-10-29 15:20:14
Tagged date                              : UTC 2016-10-29 15:34:01


Скриншоты:


Три богатыря и Шамаханская царица (2010) [720p]

#77Производство: Россия / Кинокомпания CTB, Анимационная студия Мельница
Жанр: Рисованная анимация, Комедия, Семейный, Мультфильм, Мюзикл, Приключения, Фэнтези

Режиссер: Сергей Глезин
Роли озвучивали: Дмитрий Быковский, Валерий Соловьев, Олег Куликович, Сергей Маковецкий, Анна Геллер, Дмитрий Высоцкий, Константин Бронзит, Мария Цветкова, Елена Шульман, Лия Медведева

Описание:
Легендарная Шамаханская царица, которая сводила с ума многих царей и простых смертных, положила свой глаз и на Киевского князя. Тот заболел любовью странной по ней. Но чтобы доставить в целости и сохранности эту чудо-богиню в Киев-Град, срочно из отпуска вызывают всех троих, уже знакомых нам, богатырей: Алёшу Поповича, Добрыню Никитича и Илью Муромца. Теперь троица должна решить, как быть дальше? Вроде бы и слухи о царице ходят нелестные, и князя жаль.


Возраст: 12+ (зрителям, достигшим 12 лет)

Релиз от: NNMClub
Продолжительность: 01:16:32
Качество видео: BDRip
Перевод: Оригинальный
Язык озвучки: Русский
Субтитры: Отсутствуют

Видео: AVC/H.264 (Main@L3.1), 1280x720 (16:9), 4300 Кбит/сек
Аудио: AAC, 2 канала, 128 Кбит/сек - русский (оригинальный)
Код:
General
Complete name                            : C:\DGI\Герои Былин-Три Богатыря (2004-2014)\Три.богатыря.и.Шамаханская.царица.2010.720p.BDRip.AAC.h264.NNMclub.mp4
Format                                   : MPEG-4
Format profile                           : Base Media / Version 2
Codec ID                                 : mp42 (mp42/isom)
File size                                : 2.36 GiB
Duration                                 : 1h 16mn
Overall bit rate mode                    : Variable
Overall bit rate                         : 4 423 Kbps
Movie name                               : Три богатыря и Шамаханская царица
Performer                                : Сергей Глезин
Director                                 : Сергей Глезин
Actor                                    : Дмитрий Быковский / Валерий Соловьев / Олег Куликович / Сергей Маковецкий / Анна Геллер / Дмитрий Высоцкий
Producer                                 : Сергей Сельянов / Александр Боярский
Genre                                    : Русское кино
ContentType                              : Short Film
Description                              : Легендарная Шамаханская царица, которая сводила с ума многих царей и простых смертных, положила свой
Recorded date                            : 2010-12-30
Encoded date                             : UTC 2016-10-29 15:59:49
Tagged date                              : UTC 2016-10-29 16:12:00
Copyright                                : © 2010 Мельница
Cover                                    : Yes
Rating                                   : None
LongDescription                          : Легендарная Шамаханская царица, которая сводила с ума многих царей и простых смертных, положила свой глаз и на Киевского князя. Тот заболел любовью странной по ней. Но чтобы доставить в целости и сохранности эту чудо-богиню в Киев-Град, срочно из отпуска вызывают всех троих, уже знакомых нам, богатырей: Алёшу Поповича, Добрыню Никитича и Илью Муромца. Теперь троица должна решить, как быть дальше? Вроде бы и слухи о царице ходят нелестные, и князя жаль.
HDVideo                                  : Yes
AppleStoreCountry                        : Unknown Country
AppleStoreCatalogID                      : 952798101
ContentRating                            : ru-movie|12+|200|

Video
ID                                       : 1
Format                                   : AVC
Format/Info                              : Advanced Video Codec
Format profile                           :
Format settings, CABAC                   : No
Format settings, ReFrames                : 3 frames
Codec ID                                 : avc1
Codec ID/Info                            : Advanced Video Coding
Duration                                 : 1h 16mn
Bit rate                                 : 4 300 Kbps
Width                                    : 1 280 pixels
Height                                   : 720 pixels
Display aspect ratio                     : 16:9
Frame rate mode                          : Variable
Frame rate                               : 24.000 fps
Minimum frame rate                       : 23.810 fps
Maximum frame rate                       : 24.390 fps
Color space                              : YUV
Chroma subsampling                       : 4:2:0
Bit depth                                : 8 bits
Scan type                                : Progressive
Bits/(Pixel*Frame)                       : 0.194
Stream size                              : 2.29 GiB (97%)
Writing library                          : x264 core 148 r2721+55 e19946b t_mod_Custom [8-bit@all X86_64]
Encoding settings                        : cabac=0 / ref=3 / deblock=1:0:0 / analyse=0x1:0x111 / me=umh / subme=7 / psy=1 / fade_compensate=0.00 / psy_rd=0.65:0.20 / mixed_ref=1 / me_range=32 / chroma_me=1 / trellis=2 / 8x8dct=0 / cqm=0 / deadzone=21,11 / fast_pskip=0 / chroma_qp_offset=-3 / threads=18 / lookahead_threads=3 / sliced_threads=0 / nr=0 / decimate=1 / interlaced=0 / bluray_compat=0 / constrained_intra=0 / fgo=0 / bframes=3 / b_pyramid=0 / b_adapt=2 / b_bias=0 / direct=3 / weightb=1 / open_gop=0 / weightp=2 / keyint=240 / keyint_min=23 / scenecut=40 / intra_refresh=0 / rc_lookahead=64 / rc=2pass / mbtree=1 / bitrate=4300 / ratetol=1.0 / qcomp=0.60 / qpmin=0:0:0 / qpmax=69:69:69 / qpstep=4 / cplxblur=20.0 / qblur=0.5 / vbv_maxrate=14000 / vbv_bufsize=14000 / nal_hrd=none / filler=0 / ip_ratio=1.40 / aq=3:0.60 / aq-sensitivity=10.00 / aq-factor=1.00:1.00:1.00 / aq2=1:0.90 / aq2-sensitivity=15.00 / aq2-factor=1.00:1.00:1.00 / aq3=4:[0.50:0.50]:[0.50:0.50]:[0.50:0.50]:[0.50:0.50] / aq3-sensitivity=10.00 / aq3-factor=[1.00:1.00]:[1.00:1.00]:[1.00:1.00] / aq3-boundary=192:64:24
Encoded date                             : UTC 2016-10-29 15:59:49
Tagged date                              : UTC 2016-10-29 16:09:27
Color range                              : Limited
Color primaries                          : BT.709
Transfer characteristics                 : BT.709
Matrix coefficients                      : BT.709
Menus                                    : 3

Audio
ID                                       : 2
Format                                   : AAC
Format/Info                              : Advanced Audio Codec
Format profile                           : LC
Codec ID                                 : 40
Duration                                 : 1h 16mn
Source duration                          : 1h 16mn
Bit rate mode                            : Variable
Bit rate                                 : 128 Kbps
Maximum bit rate                         : 133 Kbps
Channel(s)                               : 2 channels
Channel positions                        : Front: L R
Sampling rate                            : 48.0 KHz
Frame rate                               : 46.875 fps (1024 spf)
Compression mode                         : Lossy
Stream size                              : 70.1 MiB (3%)
Source stream size                       : 70.1 MiB (3%)
Language                                 : Russian
Default                                  : Yes
Alternate group                          : 1
Encoded date                             : UTC 2016-10-29 15:59:49
Tagged date                              : UTC 2016-10-29 16:09:27

Menu
ID                                       : 3
Codec ID                                 : text
Duration                                 : 1h 16mn
Language                                 : English
Encoded date                             : UTC 2016-10-29 16:09:27
Tagged date                              : UTC 2016-10-29 16:09:27
Bit rate mode                            : CBR
Menu For                                 : 1
00:00:00.000                             : Chapter 00
00:15:14.000                             : Chapter 01
00:26:08.541                             : Chapter 02
00:40:19.666                             : Chapter 03
00:53:56.833                             : Chapter 04
01:06:09.500                             : Chapter 05


Скриншоты:


Три богатыря на дальних берегах (2012) [720p]

#77Производство: Россия / Кинокомпания CTB, Анимационная студия Мельница
Жанр: Рисованная анимация, Комедия, Семейный, Мультфильм, Мюзикл, Приключения, Фэнтези

Режиссер: Константин Феоктистов
Роли озвучивали: Сергей Маковецкий, Елизавета Боярская, Фёдор Бондарчук, Дмитрий Быковский, Елена Шульман, Олег Куликович, Лия Медведева, Мария Цветкова, Дмитрий Высоцкий, Анатолий Петров, Наталья Данилова

Описание:
На этот раз Алеша Попович, Добрыня Никитич и Илья Муромец, благодаря козням коварной Бабы Яги, оказываются за семью морями на острове, на котором живут туземцы и страшный Гомума. В их отсутствие купец Колыван решают вместе с Бабой-Ягой захватить царство и забрать власть у князя Киевского. На помощь незадачливому правителю приходит конь Юлий, а также жены богатырей и их многочисленные родственники. Словом, богатырей и зрителей ждут приключения на дальних берегах, обыкновенные и невероятные.


Возраст: 0+ (для любой зрительской аудитории)

Продолжительность: 01:11:18
Качество видео: BDRip
Перевод: Оригинальный
Язык озвучки: Русский
Субтитры: Отсутствуют

Видео: AVC/H.264 (Main@L3.1), 1280x720 (16:9), 4300 Кбит/сек
Аудио: AAC, 2 канала, 128 Кбит/сек - русский (оригинальный)
Код:
General
Complete name                            : C:\DGI\Герои Былин-Три Богатыря (2004-2014)\Три.богатыря.на.дальних.берегах.2012.720p.BDRip.AAC.h264.NNMclub.mp4
Format                                   : MPEG-4
Format profile                           : Base Media / Version 2
Codec ID                                 : mp42 (mp42/isom)
File size                                : 2.21 GiB
Duration                                 : 1h 11mn
Overall bit rate mode                    : Variable
Overall bit rate                         : 4 434 Kbps
Movie name                               : Три богатыря на дальних берегах
Performer                                : Константин Феоктистов
Director                                 : Константин Феоктистов
Actor                                    : Дмитрий Быковский-Ромашов / Валерий Соловьев / Олег Куликович / Сергей Маковецкий / Дмитрий Высоцкий
Producer                                 : Сергей Сельянов / Александр Боярский
Genre                                    : Русское кино
ContentType                              : Short Film
Description                              : На этот раз Алеша Попович, Добрыня Никитич и Илья Муромец, благодаря козням коварной Бабы Яги,
Recorded date                            : 2012-12-27
Encoded date                             : UTC 2016-10-29 16:30:51
Tagged date                              : UTC 2016-10-29 17:30:08
Copyright                                : © 2012 студия анимационного кино Мельница
Cover                                    : Yes
Rating                                   : None
LongDescription                          : На этот раз Алеша Попович, Добрыня Никитич и Илья Муромец, благодаря козням коварной Бабы Яги, оказываются за семью морями на острове, на котором живут туземцы и страшный Гомума. В их отсутствие купец Колыван решают вместе с Бабой-Ягой захватить царство и забрать власть у князя Киевского. На помощь незадачливому правителю приходит конь Юлий, а также жены богатырей и их многочисленные родственники. Словом, богатырей и зрителей ждут приключения на дальних берегах, обыкновенные и невероятные.
HDVideo                                  : Yes
AppleStoreCountry                        : Unknown Country
AppleStoreCatalogID                      : 955872741
ContentRating                            : ru-movie|0+|000|

Video
ID                                       : 1
Format                                   : AVC
Format/Info                              : Advanced Video Codec
Format profile                           :
Format settings, CABAC                   : No
Format settings, ReFrames                : 3 frames
Codec ID                                 : avc1
Codec ID/Info                            : Advanced Video Coding
Duration                                 : 1h 11mn
Bit rate                                 : 4 300 Kbps
Width                                    : 1 280 pixels
Height                                   : 720 pixels
Display aspect ratio                     : 16:9
Frame rate mode                          : Variable
Frame rate                               : 23.976 (24000/1001) fps
Minimum frame rate                       : 23.810 fps
Maximum frame rate                       : 24.390 fps
Color space                              : YUV
Chroma subsampling                       : 4:2:0
Bit depth                                : 8 bits
Scan type                                : Progressive
Bits/(Pixel*Frame)                       : 0.195
Stream size                              : 2.14 GiB (97%)
Writing library                          : x264 core 148 r2721+55 e19946b t_mod_Custom [8-bit@all X86_64]
Encoding settings                        : cabac=0 / ref=3 / deblock=1:0:0 / analyse=0x1:0x111 / me=umh / subme=7 / psy=1 / fade_compensate=0.00 / psy_rd=0.65:0.20 / mixed_ref=1 / me_range=32 / chroma_me=1 / trellis=2 / 8x8dct=0 / cqm=0 / deadzone=21,11 / fast_pskip=0 / chroma_qp_offset=-3 / threads=18 / lookahead_threads=3 / sliced_threads=0 / nr=0 / decimate=1 / interlaced=0 / bluray_compat=0 / constrained_intra=0 / fgo=0 / bframes=3 / b_pyramid=0 / b_adapt=2 / b_bias=0 / direct=3 / weightb=1 / open_gop=0 / weightp=2 / keyint=240 / keyint_min=23 / scenecut=40 / intra_refresh=0 / rc_lookahead=64 / rc=2pass / mbtree=1 / bitrate=4300 / ratetol=1.0 / qcomp=0.60 / qpmin=0:0:0 / qpmax=69:69:69 / qpstep=4 / cplxblur=20.0 / qblur=0.5 / vbv_maxrate=14000 / vbv_bufsize=14000 / nal_hrd=none / filler=0 / ip_ratio=1.40 / aq=3:0.60 / aq-sensitivity=10.00 / aq-factor=1.00:1.00:1.00 / aq2=1:0.90 / aq2-sensitivity=15.00 / aq2-factor=1.00:1.00:1.00 / aq3=4:[0.50:0.50]:[0.50:0.50]:[0.50:0.50]:[0.50:0.50] / aq3-sensitivity=10.00 / aq3-factor=[1.00:1.00]:[1.00:1.00]:[1.00:1.00] / aq3-boundary=192:64:24
Encoded date                             : UTC 2016-10-29 16:30:51
Tagged date                              : UTC 2016-10-29 16:39:03
Color range                              : Limited
Color primaries                          : BT.709
Transfer characteristics                 : BT.709
Matrix coefficients                      : BT.709
Menus                                    : 3

Audio
ID                                       : 2
Format                                   : AAC
Format/Info                              : Advanced Audio Codec
Format profile                           : LC
Codec ID                                 : 40
Duration                                 : 1h 11mn
Source duration                          : 1h 11mn
Bit rate mode                            : Variable
Bit rate                                 : 128 Kbps
Maximum bit rate                         : 132 Kbps
Channel(s)                               : 2 channels
Channel positions                        : Front: L R
Sampling rate                            : 48.0 KHz
Frame rate                               : 46.875 fps (1024 spf)
Compression mode                         : Lossy
Stream size                              : 65.3 MiB (3%)
Source stream size                       : 65.3 MiB (3%)
Language                                 : Russian
Default                                  : Yes
Alternate group                          : 1
Encoded date                             : UTC 2016-10-29 16:30:51
Tagged date                              : UTC 2016-10-29 16:39:03

Menu
ID                                       : 3
Codec ID                                 : text
Duration                                 : 1h 11mn
Language                                 : English
Encoded date                             : UTC 2016-10-29 16:39:03
Tagged date                              : UTC 2016-10-29 16:39:03
Bit rate mode                            : CBR
Menu For                                 : 1
00:00:00.000                             : Chapter 01
00:05:42.342                             : Chapter 02
00:10:39.597                             : Chapter 03
00:16:36.704                             : Chapter 04
00:24:05.861                             : Chapter 05
00:30:40.004                             : Chapter 06
00:35:16.364                             : Chapter 07
00:42:07.983                             : Chapter 08
00:49:30.759                             : Chapter 09
00:54:38.817                             : Chapter 10
01:00:39.761                             : Chapter 11
01:06:27.233                             : Chapter 12


Скриншоты:


Три богатыря: Ход конем (2014) BDRip [720p]

#77Производство: Россия / Кинокомпания CTB, Анимационная студия Мельница
Жанр: Рисованная анимация, Комедия, Семейный, Мультфильм, Мюзикл, Приключения, Фэнтези

Режиссер: Константин Феоктистов
Роли озвучивали: Сергей Маковецкий, Дмитрий Высоцкий, Дмитрий Нагиев, Олег Куликович, Валерий Соловьев, Дмитрий Быковский-Ромашов, Гоша Куценко, Наргиз Закирова, Анатолий Петров, Лия Медведева

Описание:
Придворный конь Гай Юлий Цезарь на свою беду подслушивает разговор бояр и узнает о заговоре против князя. Что же делать? Защитить-то князя некому! Богатыри далеко – ловят разбойника Потаню, Горыныч в отпуске, войско на учениях… Но если плохие парни собираются захватить мир, то кому-то же надо его спасти? Кто же он, настоящий герой, который придет на помощь? Конечно, конь Юлий! Настоящий стратег и «великий комбинатор». Он непременно всех спасет, а если не спасет, то хотя бы постарается. Главное, чтобы операция по спасению мира не обернулась полной катастрофой.


Возраст: 6+ (зрителям, достигшим 6 лет)

Релиз от: NNMClub
Продолжительность: 01:14:43
Качество видео: BDRip
Перевод: Оригинальный
Язык озвучки: Русский
Субтитры: Отсутствуют

Видео: AVC/H.264 (Main@L3.1), 1280x692 (1.85:1), 4300 Кбит/сек
Аудио: AAC, 2 канала, 128 Кбит/сек - русский (оригинальный)
Код:
General
Complete name                            : C:\DGI\Герои Былин-Три Богатыря (2004-2014)\Три.богатыря.Ход.конем.2014.720p.BDRip.AAC.h264.NNMclub.mp4
Format                                   : MPEG-4
Format profile                           : Base Media / Version 2
Codec ID                                 : mp42 (mp42/isom)
File size                                : 2.31 GiB
Duration                                 : 1h 14mn
Overall bit rate mode                    : Variable
Overall bit rate                         : 4 433 Kbps
Movie name                               : Три богатыря: Ход конем
Performer                                : Константин Феоктистов
Director                                 : Константин Феоктистов
Actor                                    : Сергей Маковецкий / Дмитрий Быковский-Ромашов / Валерий Соловьев / Олег Куликович / Дмитрий Высоцкий
Producer                                 : Сергей Сельянов / Александр Боярский
Genre                                    : Русское кино
ContentType                              : Short Film
Description                              : Придворный конь Гай Юлий Цезарь на свою беду подслушивает разговор бояр и узнает о заговоре против
Recorded date                            : 2015-01-01
Encoded date                             : UTC 2016-10-29 16:45:28
Tagged date                              : UTC 2016-10-29 17:48:38
Copyright                                : © 2014 Анимационная студия Мельница
Cover                                    : Yes
Rating                                   : None
LongDescription                          : Придворный конь Гай Юлий Цезарь на свою беду подслушивает разговор бояр и узнает о заговоре против князя. Что же делать? Защитить-то князя некому! Богатыри далеко — ловят разбойника Потаню, Горыныч в отпуске, войско на учениях… Но если плохие парни собираются захватить мир, то кому-то же надо его спасти? Кто же он, настоящий герой, который придет на помощь? Конечно, конь Юлий! Настоящий стратег и «великий комбинатор». Он непременно всех спасет, а если не спасет, то хотя бы постарается. Главное, чтобы операция по спасению мира не обернулась полной катастрофой.
HDVideo                                  : Yes
AppleStoreCountry                        : Unknown Country
AppleStoreCatalogID                      : 953680827
ContentRating                            : ru-movie|6+|150|

Video
ID                                       : 1
Format                                   : AVC
Format/Info                              : Advanced Video Codec
Format profile                           :
Format settings, CABAC                   : No
Format settings, ReFrames                : 3 frames
Codec ID                                 : avc1
Codec ID/Info                            : Advanced Video Coding
Duration                                 : 1h 14mn
Bit rate                                 : 4 300 Kbps
Width                                    : 1 280 pixels
Height                                   : 692 pixels
Display aspect ratio                     : 1.85:1
Frame rate mode                          : Variable
Frame rate                               : 24.000 fps
Minimum frame rate                       : 23.810 fps
Maximum frame rate                       : 24.390 fps
Color space                              : YUV
Chroma subsampling                       : 4:2:0
Bit depth                                : 8 bits
Scan type                                : Progressive
Bits/(Pixel*Frame)                       : 0.202
Stream size                              : 2.24 GiB (97%)
Writing library                          : x264 core 148 r2721+55 e19946b t_mod_Custom [8-bit@all X86_64]
Encoding settings                        : cabac=0 / ref=3 / deblock=1:0:0 / analyse=0x1:0x111 / me=umh / subme=7 / psy=1 / fade_compensate=0.00 / psy_rd=0.65:0.20 / mixed_ref=1 / me_range=32 / chroma_me=1 / trellis=2 / 8x8dct=0 / cqm=0 / deadzone=21,11 / fast_pskip=0 / chroma_qp_offset=-3 / threads=18 / lookahead_threads=3 / sliced_threads=0 / nr=0 / decimate=1 / interlaced=0 / bluray_compat=0 / constrained_intra=0 / fgo=0 / bframes=3 / b_pyramid=0 / b_adapt=2 / b_bias=0 / direct=3 / weightb=1 / open_gop=0 / weightp=2 / keyint=240 / keyint_min=23 / scenecut=40 / intra_refresh=0 / rc_lookahead=64 / rc=2pass / mbtree=1 / bitrate=4300 / ratetol=1.0 / qcomp=0.60 / qpmin=0:0:0 / qpmax=69:69:69 / qpstep=4 / cplxblur=20.0 / qblur=0.5 / vbv_maxrate=14000 / vbv_bufsize=14000 / nal_hrd=none / filler=0 / ip_ratio=1.40 / aq=3:0.60 / aq-sensitivity=10.00 / aq-factor=1.00:1.00:1.00 / aq2=1:0.90 / aq2-sensitivity=15.00 / aq2-factor=1.00:1.00:1.00 / aq3=4:[0.50:0.50]:[0.50:0.50]:[0.50:0.50]:[0.50:0.50] / aq3-sensitivity=10.00 / aq3-factor=[1.00:1.00]:[1.00:1.00]:[1.00:1.00] / aq3-boundary=192:64:24
Encoded date                             : UTC 2016-10-29 16:45:28
Tagged date                              : UTC 2016-10-29 17:04:13
Color range                              : Limited
Color primaries                          : BT.709
Transfer characteristics                 : BT.709
Matrix coefficients                      : BT.709
Menus                                    : 3

Audio
ID                                       : 2
Format                                   : AAC
Format/Info                              : Advanced Audio Codec
Format profile                           : LC
Codec ID                                 : 40
Duration                                 : 1h 14mn
Source duration                          : 1h 14mn
Bit rate mode                            : Variable
Bit rate                                 : 128 Kbps
Maximum bit rate                         : 132 Kbps
Channel(s)                               : 2 channels
Channel positions                        : Front: L R
Sampling rate                            : 48.0 KHz
Frame rate                               : 46.875 fps (1024 spf)
Compression mode                         : Lossy
Stream size                              : 68.4 MiB (3%)
Source stream size                       : 68.4 MiB (3%)
Language                                 : Russian
Default                                  : Yes
Alternate group                          : 1
Encoded date                             : UTC 2016-10-29 16:45:28
Tagged date                              : UTC 2016-10-29 17:04:13

Menu
ID                                       : 3
Codec ID                                 : text
Duration                                 : 1h 14mn
Language                                 : English
Encoded date                             : UTC 2016-10-29 17:04:13
Tagged date                              : UTC 2016-10-29 17:04:13
Bit rate mode                            : CBR
Menu For                                 : 1
00:00:00.000                             : Chapter 01
00:09:15.916                             : Chapter 02
00:18:48.000                             : Chapter 03
00:27:35.750                             : Chapter 04
00:37:23.791                             : Chapter 05
00:47:10.083                             : Chapter 06
00:54:14.791                             : Chapter 07
01:03:36.416                             : Chapter 08


Скриншоты:




Год выхода: 2004, 2006, 2007, 2010, 2012, 2014
Производство: Россия / Кинокомпания CTB, Анимационная студия Мельница
Жанр: Рисованная анимация, Комедия, Семейный, Мультфильм, Мюзикл, Приключения, Фэнтези
Режиссер: Константин Бронзит, Илья Максимов, Владимир Торопчин, Сергей Глезин, Константин Феоктистов

Описание:
Сборник полнометражных мультипликационных фильмов студии анимационного кино «Мельница» о приключениях трех богатырей: Алёши Поповича, Добрыни Никитича и Ильи Муромца.
Продолжительность: 01:18:51 | 01:08:08 | 01:19:31 | 01:16:32 | 01:11:18 | 01:14:43
Перевод: Не требуется (русский, оригинальный)
Язык озвучки: Русский
Субтитры: Отсутствуют
Скриншоты:



Все одноименные релизы в Клубе


Время раздачи: 24/7 (до появления первых 3-5 скачавших)
 
Не забывайте говорить Спасибо. Не уходите с раздачи!   
Торрент: Зарегистрирован [30 окт 2016, 11:05] Для скачивания .torrent
необходима регистрация
Или скачать с помощью
MediaGet
Статус:
Проверен
 
.torrent скачан: 2 раз
Хэш: db0af011eba781a6311b13d588913730a638a1b1
Размер: 13.89 ГБ (14 915 634 556 байт)
Стать Автором раздачи
 
 
Раздал: 100 ГБ
Скачал: 0 байт
Ратио: Seed.
Сообщения: 94085
Зарегистрирован: 09 апр 2015, 22:31


  • Похожие торренты
    Ответы
    Просмотры
    Последнее сообщение

Вернуться в Видео для мобильных устройств

Ресурс не предоставляет электронные версии произведений, а занимается лишь коллекционированием и каталогизацией ссылок, присылаемых и публикуемых на форуме нашими читателями. Если вы являетесь правообладателем какого-либо представленного материала и не желаете чтобы ссылка на него находилась в нашем каталоге, свяжитесь с нами и мы незамедлительно удалим её. Файлы для обмена на трекере предоставлены пользователями сайта, и администрация не несёт ответственности за их содержание. Просьба не заливать файлы, защищенные авторскими правами, а также файлы нелегального содержания!
cron