Небольшое привидение: Одна ночь в проклятом доме / Mostly Ghostly 3: One Night in Doom House (2016) WEB-DLRip [H.264] [MP4|1024x576]

 
 Статистика раздачи 
Размер: 1.42 ГБ   |  Зарегистрирован: 29 окт 2016, 09:14   |   .torrent скачан: 0 раз
Сидеров: 1  [ 0 байт/сек ]     Личеров: 1  [ 0 байт/сек ]  
  

Небольшое привидение: Одна ночь в проклятом доме / Mostly Ghostly 3: One Night in Doom House (2016) WEB-DLRip [H.264] [MP4|1024x576]

Сообщение explosiveone » 29 окт 2016, 09:14

Небольшое привидение: Одна ночь в проклятом доме / Mostly Ghostly 3: One Night in Doom House (2016) WEB-DLRip


Производство: США / Commotion Pictures, Lookout Entertainment, Mostly Ghostly 3 Productions
Жанр: Фэнтези, Ужасы, Семейный

Режиссер: Рон Оливер
Актеры: Кори Фогельманис, Софи Рейнольдс, Блейк Майкл, Оливия Райан Штерн, Вивиан Фулл, Эндрю Херр, Джедидайя Гудакр, Джейми Кеннеди, Дэнни Трехо, Питер ДеЛуис

Описание:
Поклонник ужастиков Р. Л. Стайна, Макс Дойл уверен в том, что вещи из дома с привидениями способны помочь его друзьям Ники и Таре уладить конфликт с одним призраком. Кроме того, Макс имеет твёрдое убеждение, что у него есть духи-знакомые, способные поддержать в любую минуту и поэтому не боится рисковать…


Рейтинг MPAA: PG (рекомендуется присутствие родителей)

Релиз от: NNMClub
Продолжительность: 01:28:36
Качество видео: WEB-DLRip
Перевод: Дублированный - (iTunes)
Вид субтитров: Вшитые отключаемые
Язык субтитров: Русский, Английский
Реклама: Без рекламы

Видео: AVC/H.264 (Main@L3.1), 1024x576 (16:9), 2000 Кбит/сек
Аудио #1: AAC, 2 канала, 128 Кбит/сек - русский (дублированный)
Аудио #2: AAC, 2 канала, 128 Кбит/сек - английский
Код:
General
Complete name                            : C:\DGI\Mostly.Ghostly.3_One.Night.in.Doom.House.2016.576p.WEB-DLRip.AAC.h264.NNMclub.mp4
Format                                   : MPEG-4
Format profile                           : Base Media / Version 2
Codec ID                                 : mp42 (mp42/isom)
File size                                : 1.42 GiB
Duration                                 : 1h 28mn
Overall bit rate mode                    : Variable
Overall bit rate                         : 2 293 Kbps
Movie name                               : Mostly Ghostly 3: One Night in Doom House
Performer                                : Ron Oliver
Director                                 : Ron Oliver
Actor                                    : Danny Trejo / Corey Fogelmanis / Sophie Reynolds / Blake Michael / Olivia Ryan Stern / Vivian Full / Andrew Herr / Jedidiah Goodacre / Jamie Kennedy / Peter DeLuise / Anne Marie DeLuise / Karen Holness / Zak Santiago / Ali Eagle / Alexa Barajas / Wyatt Bernard / Juliette Cohen / Adam Tsekhman / Darryl Van Dyke / Nelson Wong / Casey Young
Screenplay by                            : Ron Oliver / R.L. Stine
Producer                                 : Yvonne Bernard / Arthur Cohen / Steven Stabler
Production studio                        : Commotion Pictures, Mostly Ghostly 3 Productions
Genre                                    : Family, Fantasy, Horror
ContentType                              : Short Film
Description                              : Get ready for another spooktacular chapter in the Mostly Ghostly series from international best selling author R.L. Stine. Just one enchanted jewel stands between earth and an army of evil spirits led by the devious ghoul, Phears. With the help of his new girlfriend and ghost pals, Max Doyle races to find the crystal and save the world. Corey Fogelmanis (Girl Meets World), Sophie Reynolds (Gamers Guide to Pretty Much Everything), Morgan Fairchild (Falcon Crest) and Danny Trejo (Spy Kids franchise) deliver a paranormal comedy the whole family will love!
Recorded date                            : 2016-09-06
Encoded date                             : UTC 2016-10-29 05:17:42
Tagged date                              : UTC 2016-10-29 05:25:09
Cover                                    : Yes
Rating                                   : None
LongDescription                          : Get ready for another spooktacular chapter in the Mostly Ghostly series from international best selling author R.L. Stine. Just one enchanted jewel stands between earth and an army of evil spirits led by the devious ghoul, Phears. With the help of his new girlfriend and ghost pals, Max Doyle races to find the crystal and save the world. Corey Fogelmanis (Girl Meets World), Sophie Reynolds (Gamers Guide to Pretty Much Everything), Morgan Fairchild (Falcon Crest) and Danny Trejo (Spy Kids franchise) deliver a paranormal comedy the whole family will love!

Video
ID                                       : 1
Format                                   : AVC
Format/Info                              : Advanced Video Codec
Format profile                           :
Format settings, CABAC                   : Yes
Format settings, ReFrames                : 3 frames
Codec ID                                 : avc1
Codec ID/Info                            : Advanced Video Coding
Duration                                 : 1h 28mn
Bit rate                                 : 2 000 Kbps
Width                                    : 1 024 pixels
Height                                   : 576 pixels
Display aspect ratio                     : 16:9
Frame rate mode                          : Variable
Frame rate                               : 23.976 (24000/1001) fps
Minimum frame rate                       : 23.810 fps
Maximum frame rate                       : 24.390 fps
Color space                              : YUV
Chroma subsampling                       : 4:2:0
Bit depth                                : 8 bits
Scan type                                : Progressive
Bits/(Pixel*Frame)                       : 0.141
Stream size                              : 1.24 GiB (87%)
Writing library                          : x264 core 148 r2721+55 e19946b t_mod_Custom [8-bit@all X86_64]
Encoding settings                        : cabac=1 / ref=3 / deblock=1:-3:-3 / analyse=0x1:0x111 / me=umh / subme=7 / psy=1 / fade_compensate=0.00 / psy_rd=1.00:0.20 / mixed_ref=1 / me_range=32 / chroma_me=1 / trellis=2 / 8x8dct=0 / cqm=0 / deadzone=21,11 / fast_pskip=0 / chroma_qp_offset=-3 / threads=12 / lookahead_threads=2 / sliced_threads=0 / nr=0 / decimate=0 / interlaced=0 / bluray_compat=0 / constrained_intra=0 / fgo=0 / bframes=3 / b_pyramid=1 / b_adapt=2 / b_bias=0 / direct=3 / weightb=1 / open_gop=0 / weightp=2 / keyint=240 / keyint_min=23 / scenecut=40 / intra_refresh=0 / rc_lookahead=40 / rc=2pass / mbtree=1 / bitrate=2000 / ratetol=1.0 / qcomp=0.60 / qpmin=0:0:0 / qpmax=69:69:69 / qpstep=4 / cplxblur=20.0 / qblur=0.5 / vbv_maxrate=10000 / vbv_bufsize=10000 / nal_hrd=none / filler=0 / ip_ratio=1.40 / aq=3:0.90 / aq-sensitivity=10.00 / aq-factor=1.00:1.00:1.00 / aq2=1:0.90 / aq2-sensitivity=15.00 / aq2-factor=1.00:1.00:1.00 / aq3=4:[0.50:0.50]:[0.50:0.50]:[0.50:0.50]:[0.50:0.50] / aq3-sensitivity=10.00 / aq3-factor=[1.00:1.00]:[1.00:1.00]:[1.00:1.00] / aq3-boundary=192:64:24
Encoded date                             : UTC 2016-10-29 05:17:42
Tagged date                              : UTC 2016-10-29 05:23:35
Color range                              : Limited
Color primaries                          : BT.709
Transfer characteristics                 : BT.709
Matrix coefficients                      : BT.709
Menus                                    : 7

Audio #1
ID                                       : 2
Format                                   : AAC
Format/Info                              : Advanced Audio Codec
Format profile                           : LC
Codec ID                                 : 40
Duration                                 : 1h 28mn
Bit rate mode                            : Variable
Bit rate                                 : 157 Kbps
Maximum bit rate                         : 249 Kbps
Channel(s)                               : 2 channels
Channel positions                        : Front: L R
Sampling rate                            : 48.0 KHz
Frame rate                               : 46.875 fps (1024 spf)
Compression mode                         : Lossy
Stream size                              : 99.4 MiB (7%)
Language                                 : Russian
Default                                  : Yes
Alternate group                          : 1
Encoded date                             : UTC 2016-10-29 05:17:42
Tagged date                              : UTC 2016-10-29 05:23:35

Audio #2
ID                                       : 3
Format                                   : AAC
Format/Info                              : Advanced Audio Codec
Format profile                           : LC
Codec ID                                 : 40
Duration                                 : 1h 28mn
Source duration                          : 1h 28mn
Bit rate mode                            : Variable
Bit rate                                 : 128 Kbps
Maximum bit rate                         : 133 Kbps
Channel(s)                               : 2 channels
Channel positions                        : Front: L R
Sampling rate                            : 48.0 KHz
Frame rate                               : 46.875 fps (1024 spf)
Compression mode                         : Lossy
Stream size                              : 81.1 MiB (6%)
Source stream size                       : 81.1 MiB (6%)
Language                                 : English
Default                                  : No
Alternate group                          : 1
Encoded date                             : UTC 2016-10-29 05:17:42
Tagged date                              : UTC 2016-10-29 05:23:35

Text #1
ID                                       : 4
Format                                   : Timed Text
Muxing mode                              : sbtl
Codec ID                                 : tx3g
Duration                                 : 1h 22mn
Bit rate mode                            : Variable
Bit rate                                 : 1 bps
Stream size                              : 768 Bytes (0%)
Language                                 : Russian
Default                                  : Yes
Forced                                   : No
Alternate group                          : 2
Encoded date                             : UTC 2016-10-29 05:17:42
Tagged date                              : UTC 2016-10-29 05:23:35

Text #2
ID                                       : 5
Format                                   : Timed Text
Muxing mode                              : sbtl
Codec ID                                 : tx3g
Duration                                 : 1h 24mn
Bit rate mode                            : Variable
Bit rate                                 : 109 bps
Stream size                              : 67.1 KiB (0%)
Language                                 : Russian
Default                                  : No
Forced                                   : No
Alternate group                          : 2
Encoded date                             : UTC 2016-10-29 05:17:42
Tagged date                              : UTC 2016-10-29 05:23:35

Text #3
ID                                       : 6
Format                                   : Timed Text
Muxing mode                              : sbtl
Codec ID                                 : tx3g
Duration                                 : 1h 24mn
Bit rate mode                            : Variable
Bit rate                                 : 78 bps
Stream size                              : 48.3 KiB (0%)
Language                                 : English
Default                                  : No
Forced                                   : No
Alternate group                          : 2
Encoded date                             : UTC 2016-10-29 05:17:42
Tagged date                              : UTC 2016-10-29 05:23:36

Menu
ID                                       : 7
Codec ID                                 : text
Duration                                 : 1h 28mn
Language                                 : English
Encoded date                             : UTC 2016-10-29 05:23:36
Tagged date                              : UTC 2016-10-29 05:23:36
Menu For                                 : 1
00:00:00.000                             : 1
00:05:33.000                             : 2
00:09:20.000                             : 3
00:15:25.000                             : 4
00:20:11.000                             : 5
00:24:17.000                             : 6
00:28:23.000                             : 7
00:32:55.000                             : 8
00:37:17.000                             : 9
00:42:10.000                             : 10
00:45:25.000                             : 11
00:50:07.000                             : 12
00:53:33.000                             : 13
00:58:41.000                             : 14
01:01:34.000                             : 15
01:05:08.000                             : 16
01:11:07.000                             : 17
01:15:41.000                             : 18
01:20:13.000                             : 19
01:24:33.000                             : 20
Bit rate mode                            : VBR


Скриншоты:



Время раздачи: 24/7 (круглосуточно) (до появления первых 3-5 скачавших)
 
Не забывайте говорить Спасибо. Не уходите с раздачи!   
Торрент: Зарегистрирован [29 окт 2016, 09:14] Для скачивания .torrent
необходима регистрация
Или скачать с помощью
MediaGet
Статус:
Проверен
 
.torrent скачан: 0 раз
Хэш: db067523533e046152215f352aa0c1dfd8cfdb75
Размер: 1.42 ГБ (1 523 733 997 байт)
Стать Автором раздачи
 
 
Раздал: 100 ГБ
Скачал: 0 байт
Ратио: Seed.
Сообщения: 94069
Зарегистрирован: 09 апр 2015, 22:31


  • Похожие торренты
    Ответы
    Просмотры
    Последнее сообщение

Вернуться в Видео для мобильных устройств

Ресурс не предоставляет электронные версии произведений, а занимается лишь коллекционированием и каталогизацией ссылок, присылаемых и публикуемых на форуме нашими читателями. Если вы являетесь правообладателем какого-либо представленного материала и не желаете чтобы ссылка на него находилась в нашем каталоге, свяжитесь с нами и мы незамедлительно удалим её. Файлы для обмена на трекере предоставлены пользователями сайта, и администрация не несёт ответственности за их содержание. Просьба не заливать файлы, защищенные авторскими правами, а также файлы нелегального содержания!
cron