Имущество с хвостом / Who Gets the Dog? (2016) HDRip [H.264] [MP4|1024x436]

 
 Статистика раздачи 
Размер: 1.52 ГБ   |  Зарегистрирован: 27 окт 2016, 23:32   |   .torrent скачан: 0 раз
Сидеров: 1  [ 0 байт/сек ]     Личеров: 0  [ 0 байт/сек ]  
  

Имущество с хвостом / Who Gets the Dog? (2016) HDRip [H.264] [MP4|1024x436]

Сообщение explosiveone » 27 окт 2016, 23:32

Имущество с хвостом / Who Gets the Dog? (2016) HDRip

«Breakups can be woof!»

Производство: США / 2DS Productions
Жанр: Комедия

Режиссер: Хак Ботко
Актеры: Алисия Сильверстоун, Райан Квантен, Рэндолл Батинкофф, Мишель Суини Абрамс, Рэйчел Серда, Кристин А. Доннелли, Эми Дж. Карле, Сьюзи Брэк, Мэтти Райан, Ламар Кертис

Описание:
Олив — успешный врач, Клэй — хоккеист-неудачник. Они влюбились, поженились и завели голден-ретривера. Но она мечтала о нормальной семье, а он — о спортивной карьере… И когда дело движется к разводу, бывшие возлюбленные начинают нешуточную борьбу за драгоценного питомца.


Рейтинг MPAA: PG (рекомендуется присутствие родителей)

Релиз от: NNMClub
Продолжительность: 01:36:02
Качество видео: HDRip
Перевод: Дублированный - (iTunes)
Вид субтитров: Вшитые отключаемые
Язык субтитров: Французский

Видео: AVC/H.264 (Main@L3.1), 1024x436 (2.35:1), 2000 Кбит/сек
Аудио #1: AAC, 2 канала, 128 Кбит/сек - русский (дублированный)
Аудио #2: AAC, 2 канала, 128 Кбит/сек - английский
Код:
General
Complete name                            : C:\DGI\Who Gets the Dog.2016.576p.HDRip.AAC.h264.NNMclub.mp4
Format                                   : MPEG-4
Format profile                           : Base Media / Version 2
Codec ID                                 : mp42 (mp42/isom)
File size                                : 1.52 GiB
Duration                                 : 1h 36mn
Overall bit rate mode                    : Variable
Overall bit rate                         : 2 263 Kbps
Movie name                               : Who Gets the Dog?
Performer                                : Huck Botko
Director                                 : Huck Botko
Actor                                    : Ryan Kwanten / Alicia Silverstone / Randall Batinkoff / Matty Ryan / Rachel Cerda / Devin Bethea
Screenplay by                            : Matt Wheeler / Rick Rapoza
Producer                                 : Reid Brody / Bill Ryan / Scott Silver / Peggy Case / Blythe Frank / Paul Kim / Jack Meredith / Patrick Ewald / Shaked Berenson
Genre                                    : Comedy
ContentType                              : Short Film
Description                              : Alicia Silverstone and Ryan Kwanten star in this heartfelt romantic comedy about what happens when
Recorded date                            : 2016-09-06
Encoded date                             : UTC 2016-10-27 16:36:08
Tagged date                              : UTC 2016-10-27 16:47:18
Cover                                    : Yes
Rating                                   : None
LongDescription                          : Alicia Silverstone and Ryan Kwanten star in this heartfelt romantic comedy about what happens when puppy love goes to the dogs. After six years of marriage, successful physician Olive (Silverstone) and her struggling ice hockey hubby Clay (Kwanten) decide to call it quits. And although the split is amicable, they both want custody of their beloved dog Wesley. Facing a court-ordered 60-day review to determine who’ll get custody, Olive and Clay each try their doggone best to win over the judge – and the pooch. But no matter who “wins,” everyone will lose – unless man’s best friend can somehow reunite the couple in this fun, charming story.
AppleStoreCountry                        : United States
AppleStoreCatalogID                      : 1134311881
ContentRating                            : mpaa|PG|200|

Video
ID                                       : 1
Format                                   : AVC
Format/Info                              : Advanced Video Codec
Format profile                           :
Format settings, CABAC                   : Yes
Format settings, ReFrames                : 3 frames
Codec ID                                 : avc1
Codec ID/Info                            : Advanced Video Coding
Duration                                 : 1h 36mn
Bit rate                                 : 2 000 Kbps
Width                                    : 1 024 pixels
Height                                   : 436 pixels
Display aspect ratio                     : 2.35:1
Frame rate mode                          : Variable
Frame rate                               : 23.976 (24000/1001) fps
Minimum frame rate                       : 23.810 fps
Maximum frame rate                       : 24.390 fps
Color space                              : YUV
Chroma subsampling                       : 4:2:0
Bit depth                                : 8 bits
Scan type                                : Progressive
Bits/(Pixel*Frame)                       : 0.187
Stream size                              : 1.34 GiB (88%)
Writing library                          : x264 core 148 r2721+55 e19946b t_mod_Custom [8-bit@all X86_64]
Encoding settings                        : cabac=1 / ref=3 / deblock=1:-1:-1 / analyse=0x1:0x111 / me=umh / subme=7 / psy=1 / fade_compensate=0.00 / psy_rd=1.00:0.20 / mixed_ref=1 / me_range=32 / chroma_me=1 / trellis=2 / 8x8dct=0 / cqm=0 / deadzone=21,11 / fast_pskip=0 / chroma_qp_offset=-3 / threads=12 / lookahead_threads=2 / sliced_threads=0 / nr=0 / decimate=0 / interlaced=0 / bluray_compat=0 / constrained_intra=0 / fgo=0 / bframes=3 / b_pyramid=1 / b_adapt=2 / b_bias=0 / direct=3 / weightb=1 / open_gop=0 / weightp=2 / keyint=240 / keyint_min=23 / scenecut=40 / intra_refresh=0 / rc_lookahead=40 / rc=2pass / mbtree=1 / bitrate=2000 / ratetol=1.0 / qcomp=0.60 / qpmin=0:0:0 / qpmax=69:69:69 / qpstep=4 / cplxblur=20.0 / qblur=0.5 / vbv_maxrate=10000 / vbv_bufsize=10000 / nal_hrd=none / filler=0 / ip_ratio=1.40 / aq=3:0.90 / aq-sensitivity=10.00 / aq-factor=1.00:1.00:1.00 / aq2=1:0.80 / aq2-sensitivity=15.00 / aq2-factor=1.00:1.00:1.00 / aq3=4:[0.50:0.50]:[0.50:0.50]:[0.50:0.50]:[0.50:0.50] / aq3-sensitivity=10.00 / aq3-factor=[1.00:1.00]:[1.00:1.00]:[1.00:1.00] / aq3-boundary=192:64:24
Encoded date                             : UTC 2016-10-27 16:36:08
Tagged date                              : UTC 2016-10-27 16:42:38
Color range                              : Limited
Color primaries                          : BT.709
Transfer characteristics                 : BT.709
Matrix coefficients                      : BT.709
Menus                                    : 6

Audio #1
ID                                       : 2
Format                                   : AAC
Format/Info                              : Advanced Audio Codec
Format profile                           : LC
Codec ID                                 : 40
Duration                                 : 1h 36mn
Source duration                          : 1h 36mn
Bit rate mode                            : Variable
Bit rate                                 : 128 Kbps
Maximum bit rate                         : 132 Kbps
Channel(s)                               : 2 channels
Channel positions                        : Front: L R
Sampling rate                            : 48.0 KHz
Frame rate                               : 46.875 fps (1024 spf)
Compression mode                         : Lossy
Stream size                              : 87.9 MiB (6%)
Source stream size                       : 87.9 MiB (6%)
Language                                 : Russian
Default                                  : Yes
Alternate group                          : 1
Encoded date                             : UTC 2016-10-27 16:36:08
Tagged date                              : UTC 2016-10-27 16:42:38

Audio #2
ID                                       : 3
Format                                   : AAC
Format/Info                              : Advanced Audio Codec
Format profile                           : LC
Codec ID                                 : 40
Duration                                 : 1h 36mn
Source duration                          : 1h 36mn
Bit rate mode                            : Variable
Bit rate                                 : 128 Kbps
Maximum bit rate                         : 131 Kbps
Channel(s)                               : 2 channels
Channel positions                        : Front: L R
Sampling rate                            : 48.0 KHz
Frame rate                               : 46.875 fps (1024 spf)
Compression mode                         : Lossy
Stream size                              : 87.9 MiB (6%)
Source stream size                       : 87.9 MiB (6%)
Language                                 : English
Default                                  : No
Alternate group                          : 1
Encoded date                             : UTC 2016-10-27 16:36:08
Tagged date                              : UTC 2016-10-27 16:42:38

Text #1
ID                                       : 4
Format                                   : Timed Text
Muxing mode                              : sbtl
Codec ID                                 : tx3g
Duration                                 : 1h 9mn
Bit rate mode                            : Variable
Bit rate                                 : 1 bps
Stream size                              : 641 Bytes (0%)
Language                                 : French
Default                                  : Yes
Forced                                   : No
Alternate group                          : 2
Encoded date                             : UTC 2016-10-27 16:36:08
Tagged date                              : UTC 2016-10-27 16:42:38

Text #2
ID                                       : 5
Format                                   : Timed Text
Muxing mode                              : sbtl
Codec ID                                 : tx3g
Duration                                 : 1h 31mn
Bit rate mode                            : Variable
Bit rate                                 : 88 bps
Stream size                              : 59.0 KiB (0%)
Language                                 : French
Default                                  : No
Forced                                   : No
Alternate group                          : 2
Encoded date                             : UTC 2016-10-27 16:36:08
Tagged date                              : UTC 2016-10-27 16:42:38

Menu
ID                                       : 6
Codec ID                                 : text
Duration                                 : 1h 36mn
Language                                 : English
Encoded date                             : UTC 2016-10-27 16:42:38
Tagged date                              : UTC 2016-10-27 16:42:38
Bit rate mode                            : CBR
Menu For                                 : 1
00:00:00.000                             : 00:00:00.000
00:13:30.309                             : 00:13:30.309
00:27:45.914                             : 00:27:45.914
00:42:04.480                             : 00:42:04.480
00:54:08.537                             : 00:54:08.537
01:04:46.216                             : 01:04:46.216
01:17:14.171                             : 01:17:14.171
01:31:54.801                             : 01:31:54.801


Скриншоты:



Время раздачи: 24/7 (круглосуточно) (до появления первых 3-5 скачавших)
 
Не забывайте говорить Спасибо. Не уходите с раздачи!   
Торрент: Зарегистрирован [27 окт 2016, 23:32] Для скачивания .torrent
необходима регистрация
Или скачать с помощью
MediaGet
Статус:
Проверен
 
.torrent скачан: 0 раз
Хэш: 60c948829945ab08cea0a6e38c18e384c0c79eef
Размер: 1.52 ГБ (1 630 325 820 байт)
Стать Автором раздачи
 
 
Раздал: 100 ГБ
Скачал: 0 байт
Ратио: Seed.
Сообщения: 94048
Зарегистрирован: 09 апр 2015, 22:31


  • Похожие торренты
    Ответы
    Просмотры
    Последнее сообщение

Вернуться в Видео для мобильных устройств

Ресурс не предоставляет электронные версии произведений, а занимается лишь коллекционированием и каталогизацией ссылок, присылаемых и публикуемых на форуме нашими читателями. Если вы являетесь правообладателем какого-либо представленного материала и не желаете чтобы ссылка на него находилась в нашем каталоге, свяжитесь с нами и мы незамедлительно удалим её. Файлы для обмена на трекере предоставлены пользователями сайта, и администрация не несёт ответственности за их содержание. Просьба не заливать файлы, защищенные авторскими правами, а также файлы нелегального содержания!
cron