Балтфлот (2016) HDTV [H.264/720p] (Серии 1-12 из 12)

 
 Статистика раздачи 
Размер: 13.46 ГБ   |  Зарегистрирован: 27 окт 2016, 13:53   |   .torrent скачан: 1 раз
Сидеров: 1  [ 0 байт/сек ]     Личеров: 0  [ 0 байт/сек ]  
  

Балтфлот (2016) HDTV [H.264/720p] (Серии 1-12 из 12)

Сообщение explosiveone » 27 окт 2016, 13:53

Балтфлот (2016) HDTV [H.264/720p]

Телекомпания: Россия, RTД
Жанр: Документальный

Участники: Режиссер: Тарас Василенко

Описание:
Новый документальный сериал о Балтийском флоте и ежедневных реалиях службы моряков. На примере экипажей катера класса корвет «Сообразительный» и подводной лодки «Магнитогорск» будет продемонстрировано, как личный состав не только укрепляет боевую подготовку, но и оперативно решает текущие проблемы, начиная от вопросов быта до межличностных взаимоотношений. В тренировочных манёврах двух кораблей, обладающих своими особыми тактическими преимуществами и новейшим вооружением, победителем выйдет тот, где выше уровень дисциплины, грамотности, опыта и взаимодействия. От покраски корпуса корабля до отработки тактических приёмов боевых действий – моряки Балтфлота должны уметь всё. А уровень подготовки команды покажут боевые учения. По сценарию в схватку вступят корвет «Сообразительный», на стороне которого вся мощь современных вооружений, и подлодка «Магнитогорск» – её сильными сторонами являются способность действовать скрытно и опытный, прошедший десятки погружений экипаж. О службе на Балтийском флоте – в новом документальном сериале на RTД.

Продолжительность: ~00:26:00 (одна серия)
Качество видео: HDTV [720p]

Видео: AVC/H.264, 1280 х 720, ~5767 kb/s
Аудио: AC3, 2 ch, 192 kb/s, CBR
Код: Выделить всё
Общее
Идентификатор                            : 16 (0x10)
Полное имя                               : Baltic Fleet_part_1.ts
Формат                                   : MPEG-TS
Размер файла                             : 1,11 Гбайт
Продолжительность                        : 25 м.
Режим общего битрейта                    : Переменный
Общий поток                              : 6171 Кбит/сек

Видео
Идентификатор                            : 1001 (0x3E9)
Идентификатор меню                       : 1 (0x1)
Формат                                   : AVC
Формат/Информация                        : Advanced Video Codec
Профиль формата                          :
Параметр CABAC формата                   : Нет
Параметр ReFrames формата                : 4 кадра
Идентификатор кодека                     : 27
Продолжительность                        : 25 м.
Вид битрейта                             : Постоянный
Битрейт                                  : 5767 Кбит/сек
Ширина                                   : 1280 пикселей
Высота                                   : 720 пикселей
Соотношение сторон                       : 16:9
Частота кадров                           : 50,000 кадров/сек
Стандарт вещания                         : PAL
Цветовое пространство                    : YUV
Субдискретизация насыщенности            : 4:2:0
Битовая глубина                          : 8 бит
Тип развёртки                            : Прогрессивная
Бит/(Пиксели*Кадры)                      : 0.125
Размер потока                            : 1,02 Гбайт (92%)
Основные цвета                           : BT.709
Характеристики трансфера                 : BT.709
Коэффициенты матрицы                     : BT.709

Аудио
Идентификатор                            : 1002 (0x3EA)
Идентификатор меню                       : 1 (0x1)
Формат                                   : AC-3
Формат/Информация                        : Audio Coding 3
Расширение режима                        : CM (complete main)
Параметр Endianness формата              : Big
Идентификатор кодека                     : 6
Продолжительность                        : 25 м.
Вид битрейта                             : Постоянный
Битрейт                                  : 192 Кбит/сек
Каналы                                   : 2 канала
Расположение каналов                     : Front: L R
Частота                                  : 48,0 КГц
Битовая глубина                          : 16 бит
Метод сжатия                             : С потерями
Задержка видео                           : 8 мс.
Размер потока                            : 35,3 Мбайт (3%)
Язык                                     : std
Язык, дополнительно                      : Clean effects

Скриншоты:




Время раздачи: Сб-Вс с 09:00 до 23:30 (до появления первых 3-5 скачавших)
 
Не забывайте говорить Спасибо. Не уходите с раздачи!   
Торрент: Зарегистрирован [27 окт 2016, 13:53] Для скачивания .torrent
необходима регистрация
Или скачать с помощью
MediaGet
Статус:
Проверен
 
.torrent скачан: 1 раз
Хэш: 5dc20aa5c7c0983a0e2bab760c36ac581fd7c80d
Размер: 13.46 ГБ (14 455 038 188 байт)
Стать Автором раздачи
 
 
Раздал: 100 ГБ
Скачал: 0 байт
Ратио: Seed.
Сообщения: 94156
Зарегистрирован: 09 апр 2015, 22:31


  • Похожие торренты
    Ответы
    Просмотры
    Последнее сообщение

Вернуться в Флот

Ресурс не предоставляет электронные версии произведений, а занимается лишь коллекционированием и каталогизацией ссылок, присылаемых и публикуемых на форуме нашими читателями. Если вы являетесь правообладателем какого-либо представленного материала и не желаете чтобы ссылка на него находилась в нашем каталоге, свяжитесь с нами и мы незамедлительно удалим её. Файлы для обмена на трекере предоставлены пользователями сайта, и администрация не несёт ответственности за их содержание. Просьба не заливать файлы, защищенные авторскими правами, а также файлы нелегального содержания!
cron