Фото за час / One Hour Photo (2002) HDRip [H.264] [MP4|1024x552]

 
 Статистика раздачи 
Размер: 2.85 ГБ   |  Зарегистрирован: 26 окт 2016, 12:57   |   .torrent скачан: 0 раз
Сидеров: 1  [ 0 байт/сек ]     Личеров: 0  [ 0 байт/сек ]  
  

Фото за час / One Hour Photo (2002) HDRip [H.264] [MP4|1024x552]

Сообщение explosiveone » 26 окт 2016, 12:57

Фото за час / One Hour Photo (2002) HDRip

«Er weiß, wo du wohnst!»

Производство: США / Fox Searchlight Pictures, Catch 23 Entertainment, Killer Films
Жанр: Триллер, Драма

Режиссер: Марк Романек
Актеры: Робин Уильямс, Конни Нильсен, Майкл Вартан, Дилан Смит, Эрин Дэниелс, Пол Х. Ким, Ли Гарлингтон, Гари Коул, Мэрион Кэлверт, Дэвид Морлэнд

Описание:
Сай Перриш — одинокий пожилой начальник фотолаборатории. В его жизни нет ничего, кроме работы. Единственная отрада в жизни Сая — семья Йоркин.
Проявляя для них фотографии на протяжении многих лет, Сай привязывается к этой семье, и в особенности к маленькому Джейкобу. Но привязанность эта заходит слишком далеко…


Возраст: 18+ (зрителям, достигшим 18 лет. запрещено для детей)
Рейтинг MPAA: R (лицам до 17 лет обязательно присутствие взрослого)

Релиз от: NNMClub
Продолжительность: 01:36:01
Качество видео: HDRip
Перевод: Многоголосый закадровый
Вид субтитров: Отсутствуют
Реклама: Без рекламы

Видео: AVC/H.264 (Main@L4.1), 1024x552 (1.85:1), 3981 Кбит/сек
Аудио #1: AAC, 2 канала, 128 Кбит/сек - русский (многоголосый закадровый)
Аудио #2: AC3, 2 канала, 132 Кбит/сек - английский
Код:
General
Complete name                            : C:\CREATE\264mod1\out\1\One.hour.photo.2002.576p.HDRip.AAC.h264.NNMclub.mp4
Format                                   : MPEG-4
Codec ID                                 : M4V  (isom/avc1/iso2/M4A /M4V /mp42)
File size                                : 2.85 GiB
Duration                                 : 1h 36mn
Overall bit rate mode                    : Variable
Overall bit rate                         : 4 244 Kbps
Movie name                               : Фото за час
Performer                                : Mark Romanek
Director                                 : Марк Романек
Actor                                    : Робин Уильямс / Конни Нильсен / Майкл Вартан / Дилан Смит / Эрин Дэниелс / Пол Х. Ким / Ли Гарлингтон / Гэри Коул / Мэрион Кэлверт / Дэвид Морлэнд / Robin Williams (Seymour Parrish) / Connie Nielsen (Nina Yorkin) / Michael Vartan (Will Yorkin) / Erin Daniels (M...
Screenplay by                            : Марк Романек
Producer                                 : Джереми В. Барбер / Роберт Кац / Памела Коффлер
Production studio                        : Fox Searchlight
Genre                                    : Drama
ContentType                              : Short Film
Description                              : Сай Перриш — одинокий пожилой начальник фотолаборатории. В его жизни нет ничего, кроме работы. Единственная отрада в жизни Сая — семья Йоркин.Проявляя для них фотографии на протяжении многих лет, Сай привязывается к этой семье
Recorded date                            : 2002-01-13
Encoded date                             : UTC 2014-08-23 18:01:50
Tagged date                              : UTC 2016-10-08 20:36:20
Copyright                                : © 2002 Twentieth Century Fox Film Corporation.
Cover                                    : Yes
Comment                                  : «Er weiß, wo du wohnst!»
ContentRating                            : mpaa|R|400|
Title/Sort                               : One Hour Photo
LongDescription                          : Сай Перриш — одинокий пожилой начальник фотолаборатории. В его жизни нет ничего, кроме работы. Единственная отрада в жизни Сая — семья Йоркин.Проявляя для них фотографии на протяжении многих лет, Сай привязывается к этой семье, и в особенности к маленькому Джейкобу. Но привязанность эта заходит слишком далеко…
AppleStoreCatalogID                      : 271090058
Vendor                                   : Apple:vendor_id:2002-772

Video
ID                                       : 1
Format                                   : AVC
Format/Info                              : Advanced Video Codec
Format profile                           :
Format settings, CABAC                   : Yes
Format settings, ReFrames                : 9 frames
Codec ID                                 : avc1
Codec ID/Info                            : Advanced Video Coding
Duration                                 : 1h 36mn
Bit rate                                 : 3 981 Kbps
Maximum bit rate                         : 12.3 Mbps
Width                                    : 1 024 pixels
Height                                   : 552 pixels
Display aspect ratio                     : 1.85:1
Frame rate mode                          : Constant
Frame rate                               : 23.976 (24000/1001) fps
Color space                              : YUV
Chroma subsampling                       : 4:2:0
Bit depth                                : 8 bits
Scan type                                : Progressive
Bits/(Pixel*Frame)                       : 0.294
Stream size                              : 2.67 GiB (94%)
Title                                    : One.hour.photo.2002
Language                                 : English
Encoded date                             : UTC 2014-08-23 18:01:50
Tagged date                              : UTC 2014-08-23 18:02:03
Color range                              : Limited
Matrix coefficients                      : BT.709
Menus                                    : 4

Audio #1
ID                                       : 2
Format                                   : AAC
Format/Info                              : Advanced Audio Codec
Format profile                           : LC
Codec ID                                 : 40
Duration                                 : 1h 36mn
Bit rate mode                            : Variable
Bit rate                                 : 127 Kbps
Maximum bit rate                         : 197 Kbps
Channel(s)                               : 2 channels
Channel positions                        : Front: L R
Sampling rate                            : 48.0 KHz
Frame rate                               : 46.875 fps (1024 spf)
Compression mode                         : Lossy
Stream size                              : 87.0 MiB (3%)
Title                                    : MVO / MVO
Language                                 : Russian
Default                                  : Yes
Alternate group                          : 1
Encoded date                             : UTC 2014-08-23 17:56:46
Tagged date                              : UTC 2014-08-23 18:02:03

Audio #2
ID                                       : 3
Format                                   : AAC
Format/Info                              : Advanced Audio Codec
Format profile                           : LC
Codec ID                                 : 40
Duration                                 : 1h 36mn
Bit rate mode                            : Variable
Bit rate                                 : 132 Kbps
Maximum bit rate                         : 194 Kbps
Channel(s)                               : 2 channels
Channel positions                        : Front: L R
Sampling rate                            : 48.0 KHz
Frame rate                               : 46.875 fps (1024 spf)
Compression mode                         : Lossy
Stream size                              : 89.5 MiB (3%)
Language                                 : English
Default                                  : No
Alternate group                          : 1
Encoded date                             : UTC 2014-08-23 18:00:05
Tagged date                              : UTC 2014-08-23 18:02:03

Menu
ID                                       : 4
Codec ID                                 : text
Duration                                 : 1h 36mn
Encoded date                             : UTC 2014-08-23 18:02:29
Tagged date                              : UTC 2014-08-23 18:02:29
Bit rate mode                            : CBR
Menu For                                 : 1
00:00:00.000                             : 00:00:00.000
00:03:08.562                             : 00:03:08.562
00:04:24.889                             : 00:04:24.889
00:06:46.113                             : 00:06:46.113
00:11:17.384                             : 00:11:17.384
00:13:02.447                             : 00:13:02.447
00:16:23.856                             : 00:16:23.856
00:17:49.276                             : 00:17:49.276
00:19:36.340                             : 00:19:36.340
00:22:13.039                             : 00:22:13.039
00:24:18.957                             : 00:24:18.957
00:27:25.684                             : 00:27:25.684
00:29:00.946                             : 00:29:00.946
00:33:21.665                             : 00:33:21.665
00:36:57.882                             : 00:36:57.882
00:41:25.565                             : 00:41:25.565
00:45:13.043                             : 00:45:13.043
00:49:40.184                             : 00:49:40.184
00:51:48.896                             : 00:51:48.896
00:55:32.829                             : 00:55:32.829
00:58:05.481                             : 00:58:05.481
00:59:04.248                             : 00:59:04.248
01:00:43.264                             : 01:00:43.264
01:04:28.614                             : 01:04:28.614
01:06:11.384                             : 01:06:11.384
01:07:32.047                             : 01:07:32.047
01:12:19.792                             : 01:12:19.792
01:16:03.516                             : 01:16:03.516
01:18:20.444                             : 01:18:20.444
01:22:23.939                             : 01:22:23.939
01:24:04.288                             : 01:24:04.288
01:29:18.353                             : 01:29:18.353


Скриншоты:



Время раздачи: 24/7 (круглосуточно) (до появления первых 3-5 скачавших)
 
Не забывайте говорить Спасибо. Не уходите с раздачи!   
Торрент: Зарегистрирован [26 окт 2016, 12:57] Для скачивания .torrent
необходима регистрация
Или скачать с помощью
MediaGet
Статус:
Проверен
 
.torrent скачан: 0 раз
Хэш: ba7b8b4864821c033491f105ef3d5ab1ac4fb0a5
Размер: 2.85 ГБ (3 056 709 680 байт)
Стать Автором раздачи
 
 
Раздал: 100 ГБ
Скачал: 0 байт
Ратио: Seed.
Сообщения: 94007
Зарегистрирован: 09 апр 2015, 22:31


  • Похожие торренты
    Ответы
    Просмотры
    Последнее сообщение

Вернуться в Видео для мобильных устройств

Ресурс не предоставляет электронные версии произведений, а занимается лишь коллекционированием и каталогизацией ссылок, присылаемых и публикуемых на форуме нашими читателями. Если вы являетесь правообладателем какого-либо представленного материала и не желаете чтобы ссылка на него находилась в нашем каталоге, свяжитесь с нами и мы незамедлительно удалим её. Файлы для обмена на трекере предоставлены пользователями сайта, и администрация не несёт ответственности за их содержание. Просьба не заливать файлы, защищенные авторскими правами, а также файлы нелегального содержания!
cron