Костолом / Mean Machine (2001) WEB-DLRip [H.264] [MP4|1024x576]

 
 Статистика раздачи 
Размер: 1.83 ГБ   |  Зарегистрирован: 26 окт 2016, 12:55   |   .torrent скачан: 0 раз
Сидеров: 1  [ 0 байт/сек ]     Личеров: 0  [ 0 байт/сек ]  
  

Костолом / Mean Machine (2001) WEB-DLRip [H.264] [MP4|1024x576]

Сообщение explosiveone » 26 окт 2016, 12:55

Костолом / Mean Machine (2001) WEB-DLRip

«It's Not Just About Football, It's About Pride Inside!»

Производство: Великобритания, США / Paramount Pictures, Ruddy Morgan Organization, The, Brad Grey Pictures
Жанр: Драма, Комедия, Спорт

Режиссер: Барри Сколник
Актеры: Винни Джонс, Джейсон Стэйтем, Джейсон Флеминг, Дэвид Келли, Дэвид Хеммингс, Ральф Браун, Вэс Блэквуд, Робби Ги, Джофф Белл, Джон Форджэм, Сергей Чонишвили, Александр Рахленко, Андрей Градов, Андрей Бархударов, Всеволод Кузнецов

Описание:
У Дэнни Михэна есть все: деньги, слава, дорогие машины. Он - капитан английской национальной команды по футболу. Но однажды идиллия нарушается; Дэнни получает трехлетний тюремный срок за нападение на офицера полиции в состоянии алкогольного опьянения. Начальник тюрьмы, в которой оказался Дэнни, вложил немало собственных денег в создание футбольной команды и решил заполучить маститого футболиста в качестве тренера для своей команды. Его мечта - выиграть «тюремную лигу». Но Дэнни создает команду из заключенных, которая должна сыграть первый матч со своими тюремщиками. Начальник тюрьмы не возражает; он не верит, что заключенные могут выиграть.


Возраст: 16+ (зрителям, достигшим 16 лет)
Рейтинг MPAA: R (лицам до 17 лет обязательно присутствие взрослого)

Релиз от: NNMClub
Продолжительность: 01:39:15
Качество видео: WEB-DLRip
Перевод: Многоголосый закадровый - (ТНТ), Двуголосый закадровый - (R5)
Вид субтитров: Вшитые отключаемые
Язык субтитров: Русский, Английский
Реклама: Без рекламы

Видео: AVC/H.264 (Main@L3.1), 1024x576 (16:9), 2150 Кбит/сек
Аудио #1: AAC, 2 канала, 128 Кбит/сек - русский (многоголосый закадровый)
Аудио #2: AC3, 2 канала, 224 Кбит/сек - русский (двуголосый закадровый)
Аудио #3: AC3, 2 канала, 128 Кбит/сек - английский
Код:
General
Complete name                            : C:\CREATE\264mod1\out\1\Mean Machine.2001.576p.WEB-DLRip.h264.NNMclub.mp4
Format                                   : MPEG-4
Format profile                           : Base Media / Version 2
Codec ID                                 : mp42 (mp42/isom)
File size                                : 1.83 GiB
Duration                                 : 1h 39mn
Overall bit rate mode                    : Variable
Overall bit rate                         : 2 639 Kbps
Movie name                               : Mean Machine
Performer                                : Barry Skolnick
Director                                 : Barry Skolnick
Actor                                    : Vinnie Jones / Jason Statham / David Kelly / David Hemmings / Vas Blackwood / Jason Flemyng / Danny Dyer / Robbie Gee / John Forgeham / Andrew Grainger
Producer                                 : Matthew Vaughn / Guy Ritchie / Albert S. Ruddy
Genre                                    : Comedy
ContentType                              : Short Film
Description                              : The classic Burt Reynolds football-behind-bars flick The Longest Yard crosses the pond and gets an appropriate British accent in the process in this rough-and-tumble mixture of sports and action-comedy. Danny Mehan (Vinnie Jones) was one of the biggest stars in British football (what Americans call soccer), until he was caught rigging a game during a championship tournament. In the wake of this scandal, Danny's career takes a nosedive and his life spins out of control, until he finally ends up in prison for three years on an assault and battery conviction. Danny discovers there are a number of football fans behind bars who still hate him for fixing the game, but Danny has one powerful fan in this prison. The warden (David Hemmings) is a devoted football supporter with a taste for gambling; he's been trying to assemble a semi-pro team comprised of the prison's guards, but Danny is just smart enough to know this would seal his fate with his fellow prisoners. Instead, he offers to put together a team of inmates, who can play practice games against the guards. A new inmate, Sykes (John Forgeham), gets wind of Danny's idea and arranges an exhibition match between Danny's new team and the guards, though Sykes' motivation is more than just good fun. A powerful bookie, Sykes lost a fortune on the game Danny threw, and expects betting to be heavy for this game. If Danny and his men win, Sykes could make back the fortune he lost, but if the guards come out ahead, Danny's goose is cooked. Can Danny turn a gang of losers, misfits, and violent psychopaths — including muscle-bound lunatic Monk (Jason Statham), creepy but loyal Billy the Limpit (Danny Dyer), tough guy Massive (Vas Blackwood), pyromaniac Nitro (Robbie Gee), and enthusiastic but out-of-shape Raj (Omid Djalili) — into a proper team with a fighting chance of winning? Mean Machine was produced by Matthew Vaughn, who was also behind Guy Ritchie's tough-but-stylish crime comedies Lock, Stock and Two Smoking Barrels and Snatch. Star Vinnie Jones, by the way, enjoyed a career as a professional footballer in Great Britain before turning to acting.
Recorded date                            : 2002-04-25
Encoded date                             : UTC 2016-10-26 08:08:24
Tagged date                              : UTC 2016-10-26 08:14:00
Copyright                                : © 2002 Paramount Pictures
Cover                                    : Yes
Rating                                   : None
LongDescription                          : The classic Burt Reynolds football-behind-bars flick The Longest Yard crosses the pond and gets an appropriate British accent in the process in this rough-and-tumble mixture of sports and action-comedy. Danny Mehan (Vinnie Jones) was one of the biggest stars in British football (what Americans call soccer), until he was caught rigging a game during a championship tournament. In the wake of this scandal, Danny's career takes a nosedive and his life spins out of control, until he finally ends up in prison for three years on an assault and battery conviction. Danny discovers there are a number of football fans behind bars who still hate him for fixing the game, but Danny has one powerful fan in this prison. The warden (David Hemmings) is a devoted football supporter with a taste for gambling; he's been trying to assemble a semi-pro team comprised of the prison's guards, but Danny is just smart enough to know this would seal his fate with his fellow prisoners. Instead, he offers to put together a team of inmates, who can play practice games against the guards. A new inmate, Sykes (John Forgeham), gets wind of Danny's idea and arranges an exhibition match between Danny's new team and the guards, though Sykes' motivation is more than just good fun. A powerful bookie, Sykes lost a fortune on the game Danny threw, and expects betting to be heavy for this game. If Danny and his men win, Sykes could make back the fortune he lost, but if the guards come out ahead, Danny's goose is cooked. Can Danny turn a gang of losers, misfits, and violent psychopaths — including muscle-bound lunatic Monk (Jason Statham), creepy but loyal Billy the Limpit (Danny Dyer), tough guy Massive (Vas Blackwood), pyromaniac Nitro (Robbie Gee), and enthusiastic but out-of-shape Raj (Omid Djalili) — into a proper team with a fighting chance of winning? Mean Machine was produced by Matthew Vaughn, who was also behind Guy Ritchie's tough-but-stylish crime comedies Lock, Stock and Two Smoking Barrels and Snatch. Star Vinnie Jones, by the way, enjoyed a career as a professional footballer in Great Britain before turning to acting.
AppleStoreCountry                        : Australia
AppleStoreCatalogID                      : 411303609
ContentRating                            : au-movie|M|350|

Video
ID                                       : 1
Format                                   : AVC
Format/Info                              : Advanced Video Codec
Format profile                           :
Format settings, CABAC                   : Yes
Format settings, ReFrames                : 3 frames
Codec ID                                 : avc1
Codec ID/Info                            : Advanced Video Coding
Duration                                 : 1h 39mn
Bit rate                                 : 2 150 Kbps
Width                                    : 1 024 pixels
Height                                   : 576 pixels
Display aspect ratio                     : 16:9
Frame rate mode                          : Variable
Frame rate                               : 23.976 (24000/1001) fps
Minimum frame rate                       : 23.810 fps
Maximum frame rate                       : 24.390 fps
Color space                              : YUV
Chroma subsampling                       : 4:2:0
Bit depth                                : 8 bits
Scan type                                : Progressive
Bits/(Pixel*Frame)                       : 0.152
Stream size                              : 1.49 GiB (81%)
Writing library                          : x264 core 148 r2721+55 e19946b t_mod_Custom [8-bit@all X86_64]
Encoding settings                        : cabac=1 / ref=3 / deblock=1:-1:-1 / analyse=0x1:0x111 / me=umh / subme=7 / psy=1 / fade_compensate=0.00 / psy_rd=1.00:0.00 / mixed_ref=1 / me_range=32 / chroma_me=1 / trellis=2 / 8x8dct=0 / cqm=0 / deadzone=21,11 / fast_pskip=0 / chroma_qp_offset=-2 / threads=12 / lookahead_threads=2 / sliced_threads=0 / nr=0 / decimate=1 / interlaced=0 / bluray_compat=0 / constrained_intra=0 / fgo=0 / bframes=3 / b_pyramid=1 / b_adapt=2 / b_bias=0 / direct=3 / weightb=1 / open_gop=0 / weightp=2 / keyint=240 / keyint_min=23 / scenecut=40 / intra_refresh=0 / rc_lookahead=40 / rc=2pass / mbtree=1 / bitrate=2150 / ratetol=1.0 / qcomp=0.65 / qpmin=0:0:0 / qpmax=69:69:69 / qpstep=4 / cplxblur=20.0 / qblur=0.5 / vbv_maxrate=10000 / vbv_bufsize=10000 / nal_hrd=none / filler=0 / ip_ratio=1.40 / aq=3:0.90 / aq-sensitivity=10.00 / aq-factor=1.00:1.00:1.00 / aq2=1:0.80 / aq2-sensitivity=15.00 / aq2-factor=1.00:1.00:1.00 / aq3=4:[0.50:0.50]:[0.50:0.50]:[0.50:0.50]:[0.50:0.50] / aq3-sensitivity=10.00 / aq3-factor=[1.00:1.00]:[1.00:1.00]:[1.00:1.00] / aq3-boundary=192:64:24
Encoded date                             : UTC 2016-10-26 08:08:24
Tagged date                              : UTC 2016-10-26 08:13:59
Color range                              : Limited
Color primaries                          : BT.709
Transfer characteristics                 : BT.709
Matrix coefficients                      : BT.709

Audio #1
ID                                       : 2
Format                                   : AAC
Format/Info                              : Advanced Audio Codec
Format profile                           : LC
Codec ID                                 : 40
Duration                                 : 1h 39mn
Source duration                          : 1h 39mn
Bit rate mode                            : Variable
Bit rate                                 : 128 Kbps
Maximum bit rate                         : 135 Kbps
Channel(s)                               : 2 channels
Channel positions                        : Front: L R
Sampling rate                            : 48.0 KHz
Frame rate                               : 46.875 fps (1024 spf)
Compression mode                         : Lossy
Stream size                              : 90.9 MiB (5%)
Source stream size                       : 90.9 MiB (5%)
Language                                 : Russian
Default                                  : Yes
Alternate group                          : 1
Encoded date                             : UTC 2016-10-26 08:08:24
Tagged date                              : UTC 2016-10-26 08:13:59

Audio #2
ID                                       : 3
Format                                   : AC-3
Format/Info                              : Audio Coding 3
Mode extension                           : CM (complete main)
Format settings, Endianness              : Big
Codec ID                                 : ac-3
Duration                                 : 1h 39mn
Bit rate mode                            : Constant
Bit rate                                 : 224 Kbps
Channel(s)                               : 2 channels
Channel positions                        : Front: L R
Sampling rate                            : 48.0 KHz
Frame rate                               : 31.250 fps (1536 spf)
Bit depth                                : 16 bits
Compression mode                         : Lossy
Stream size                              : 159 MiB (8%)
Language                                 : Russian
Default                                  : No
Alternate group                          : 1
Encoded date                             : UTC 2016-10-26 08:08:24
Tagged date                              : UTC 2016-10-26 08:13:59

Audio #3
ID                                       : 4
Format                                   : AAC
Format/Info                              : Advanced Audio Codec
Format profile                           : LC
Codec ID                                 : 40
Duration                                 : 1h 39mn
Source duration                          : 1h 39mn
Bit rate mode                            : Variable
Bit rate                                 : 128 Kbps
Maximum bit rate                         : 135 Kbps
Channel(s)                               : 2 channels
Channel positions                        : Front: L R
Sampling rate                            : 48.0 KHz
Frame rate                               : 46.875 fps (1024 spf)
Compression mode                         : Lossy
Stream size                              : 90.9 MiB (5%)
Source stream size                       : 90.9 MiB (5%)
Language                                 : English
Default                                  : No
Alternate group                          : 1
Encoded date                             : UTC 2016-10-26 08:08:24
Tagged date                              : UTC 2016-10-26 08:13:59

Text #1
ID                                       : 5
Format                                   : Timed Text
Muxing mode                              : sbtl
Codec ID                                 : tx3g
Duration                                 : 1h 35mn
Bit rate mode                            : Variable
Bit rate                                 : 107 bps
Stream size                              : 74.9 KiB (0%)
Language                                 : Russian
Default                                  : Yes
Forced                                   : No
Alternate group                          : 2
Encoded date                             : UTC 2016-10-26 08:08:24
Tagged date                              : UTC 2016-10-26 08:13:59

Text #2
ID                                       : 6
Format                                   : Timed Text
Muxing mode                              : sbtl
Codec ID                                 : tx3g
Duration                                 : 1h 35mn
Bit rate mode                            : Variable
Bit rate                                 : 93 bps
Stream size                              : 65.1 KiB (0%)
Language                                 : English
Default                                  : No
Forced                                   : No
Alternate group                          : 2
Encoded date                             : UTC 2016-10-26 08:08:24
Tagged date                              : UTC 2016-10-26 08:14:00


Скриншоты:



Время раздачи: 24/7 (круглосуточно) (до появления первых 3-5 скачавших)
 
Не забывайте говорить Спасибо. Не уходите с раздачи!   
Торрент: Зарегистрирован [26 окт 2016, 12:55] Для скачивания .torrent
необходима регистрация
Или скачать с помощью
MediaGet
Статус:
Проверен
 
.torrent скачан: 0 раз
Хэш: eaf3eedf93802e2c93ce0220d5417c49f405dad8
Размер: 1.83 ГБ (1 964 147 502 байт)
Стать Автором раздачи
 
 
Раздал: 100 ГБ
Скачал: 0 байт
Ратио: Seed.
Сообщения: 94015
Зарегистрирован: 09 апр 2015, 22:31


  • Похожие торренты
    Ответы
    Просмотры
    Последнее сообщение

Вернуться в Видео для мобильных устройств

Ресурс не предоставляет электронные версии произведений, а занимается лишь коллекционированием и каталогизацией ссылок, присылаемых и публикуемых на форуме нашими читателями. Если вы являетесь правообладателем какого-либо представленного материала и не желаете чтобы ссылка на него находилась в нашем каталоге, свяжитесь с нами и мы незамедлительно удалим её. Файлы для обмена на трекере предоставлены пользователями сайта, и администрация не несёт ответственности за их содержание. Просьба не заливать файлы, защищенные авторскими правами, а также файлы нелегального содержания!
cron