Абсолютная власть / Imperium (2016) HDRip [H.264] [MP4|1024x428]

 
 Статистика раздачи 
Размер: 1.67 ГБ   |  Зарегистрирован: 24 окт 2016, 23:35   |   .torrent скачан: 0 раз
Сидеров: 1  [ 0 байт/сек ]     Личеров: 0  [ 0 байт/сек ]  
  

Абсолютная власть / Imperium (2016) HDRip [H.264] [MP4|1024x428]

Сообщение explosiveone » 24 окт 2016, 23:35

Абсолютная власть / Imperium (2016) HDRip

«Защити свою страну!»

Производство: США / Atomic Features, Green-Light International, Grindstone Entertainment Group
Жанр: Триллер, Драма, Криминал

Режиссер: Даниэль Рагуссис
Актеры: Дэниэл Рэдклифф, Тони Коллетт, Трэйси Леттс, Сэм Трэммелл, Нестор Карбонелл, Крис Салливан, Сет Нумрик, Павел Жайда, Девин Друид, Берн Горман

Описание:
Агент ФБР под прикрытием внедряется в банду нео-нацистов для предотвращения теракта. Каково это — жить каждый день в потоке насилия и жестокости, отстаивать свое право кулаками, выбрить череп и закрыть душу? Что такое нео-нацизм -это не только хулиганы и скинхеды, но и благополучные господа в дорогих костюмах, готовые уничтожить город ради идеи.


Возраст: 18+ (зрителям, достигшим 18 лет. запрещено для детей)
Рейтинг MPAA: R (лицам до 17 лет обязательно присутствие взрослого)]

Релиз от: NNMClub
Продолжительность: 01:48:36
Качество видео: HDRip
Перевод: Многоголосый закадровый - (Студия "Paradox" & "Omsbird records")
Вид субтитров: Вшитые отключаемые
Язык субтитров: Английский

Видео: AVC/H.264 (Main@L3.1), 1024x428 (2.40:1), 1950 Кбит/сек
Аудио #1: AAC, 2 канала, 128 Кбит/сек - русский (многоголосый закадровый)
Аудио #2: AAC, 2 канала, 128 Кбит/сек - английский
Код:
General
Complete name                            : C:\CREATE\264mod1\out\1\Imperium.2016.576p.HDRip.AAC.h264.NNMclub.mp4
Format                                   : MPEG-4
Format profile                           : Base Media / Version 2
Codec ID                                 : mp42 (mp42/isom)
File size                                : 1.67 GiB
Duration                                 : 1h 48mn
Overall bit rate mode                    : Variable
Overall bit rate                         : 2 207 Kbps
Movie name                               : Imperium
Performer                                : Daniel Ragussis
Director                                 : Daniel Ragussis
Actor                                    : Daniel Radcliffe / Toni Collette / Burn Gorman / Nestor Carbonell / Sam Trammell
Screenplay by                            : Daniel Ragussis / Michael German
Producer                                 : Barry Brooker / Stan Wertlieb / Jeff Elliott / Eric Gold / Warren T. Goz / Andrew Mann / James Masciello
Genre                                    : Thriller
ContentType                              : Short Film
Description                              : An FBI agent goes under cover to disrupt a local terrorist group's effort to make a dirty bomb.
Recorded date                            : 2016-08-19
Encoded date                             : UTC 2016-10-23 06:17:12
Tagged date                              : UTC 2016-10-23 06:28:07
Cover                                    : Yes
Rating                                   : None
LongDescription                          : Inspired by real events. When extremists steal devastatingly toxic materials in order to build a dirty bomb, FBI Agent Nate Foster (Daniel Radcliffe, Harry Potter franchise), with help from Agent Zamparo (Toni Collette, The Sixth Sense), goes undercover in order to infiltrate their shadowy underworld. But can Nate find the group's leader — and the bomb — before his cover is blown?
AppleStoreCountry                        : United States
AppleStoreCatalogID                      : 1137105485
ContentRating                            : mpaa|R|400|

Video
ID                                       : 1
Format                                   : AVC
Format/Info                              : Advanced Video Codec
Format profile                           :
Format settings, CABAC                   : No
Format settings, ReFrames                : 3 frames
Codec ID                                 : avc1
Codec ID/Info                            : Advanced Video Coding
Duration                                 : 1h 48mn
Bit rate                                 : 1 950 Kbps
Width                                    : 1 024 pixels
Height                                   : 428 pixels
Display aspect ratio                     : 2.40:1
Frame rate mode                          : Variable
Frame rate                               : 23.976 (24000/1001) fps
Minimum frame rate                       : 23.810 fps
Maximum frame rate                       : 24.390 fps
Color space                              : YUV
Chroma subsampling                       : 4:2:0
Bit depth                                : 8 bits
Scan type                                : Progressive
Bits/(Pixel*Frame)                       : 0.186
Stream size                              : 1.47 GiB (88%)
Writing library                          : x264 core 148 r2721+55 e19946b t_mod_Custom [8-bit@all X86_64]
Encoding settings                        : cabac=0 / ref=3 / deblock=1:-1:-1 / analyse=0x1:0x111 / me=umh / subme=7 / psy=1 / fade_compensate=0.00 / psy_rd=1.00:0.00 / mixed_ref=1 / me_range=32 / chroma_me=1 / trellis=2 / 8x8dct=0 / cqm=0 / deadzone=21,11 / fast_pskip=1 / chroma_qp_offset=-2 / threads=12 / lookahead_threads=2 / sliced_threads=0 / nr=0 / decimate=1 / interlaced=0 / bluray_compat=0 / constrained_intra=0 / fgo=0 / bframes=3 / b_pyramid=1 / b_adapt=2 / b_bias=0 / direct=3 / weightb=1 / open_gop=0 / weightp=2 / keyint=240 / keyint_min=23 / scenecut=40 / intra_refresh=0 / rc_lookahead=40 / rc=2pass / mbtree=1 / bitrate=1950 / ratetol=1.0 / qcomp=0.65 / qpmin=0:0:0 / qpmax=69:69:69 / qpstep=4 / cplxblur=20.0 / qblur=0.5 / vbv_maxrate=10000 / vbv_bufsize=10000 / nal_hrd=none / filler=0 / ip_ratio=1.40 / aq=3:0.90 / aq-sensitivity=10.00 / aq-factor=1.00:1.00:1.00 / aq2=1:0.70 / aq2-sensitivity=15.00 / aq2-factor=1.00:1.00:1.00 / aq3=3:[0.50:0.50]:[0.50:0.50]:[0.50:0.50]:[0.50:0.50] / aq3-sensitivity=10.00 / aq3-factor=[1.00:1.00]:[1.00:1.00]:[1.00:1.00] / aq3-boundary=192:64:24
Encoded date                             : UTC 2016-10-23 06:17:12
Tagged date                              : UTC 2016-10-23 06:26:52
Color range                              : Limited
Color primaries                          : BT.709
Transfer characteristics                 : BT.709
Matrix coefficients                      : BT.709
Menus                                    : 5

Audio #1
ID                                       : 2
Format                                   : AAC
Format/Info                              : Advanced Audio Codec
Format profile                           : LC
Codec ID                                 : 40
Duration                                 : 1h 48mn
Source duration                          : 1h 48mn
Bit rate mode                            : Variable
Bit rate                                 : 128 Kbps
Maximum bit rate                         : 132 Kbps
Channel(s)                               : 2 channels
Channel positions                        : Front: L R
Sampling rate                            : 48.0 KHz
Frame rate                               : 46.875 fps (1024 spf)
Compression mode                         : Lossy
Stream size                              : 99.4 MiB (6%)
Source stream size                       : 99.4 MiB (6%)
Language                                 : Russian
Default                                  : Yes
Alternate group                          : 1
Encoded date                             : UTC 2016-10-23 06:17:12
Tagged date                              : UTC 2016-10-23 06:26:52

Audio #2
ID                                       : 3
Format                                   : AAC
Format/Info                              : Advanced Audio Codec
Format profile                           : LC
Codec ID                                 : 40
Duration                                 : 1h 48mn
Source duration                          : 1h 48mn
Bit rate mode                            : Variable
Bit rate                                 : 128 Kbps
Maximum bit rate                         : 133 Kbps
Channel(s)                               : 2 channels
Channel positions                        : Front: L R
Sampling rate                            : 48.0 KHz
Frame rate                               : 46.875 fps (1024 spf)
Compression mode                         : Lossy
Stream size                              : 99.4 MiB (6%)
Source stream size                       : 99.4 MiB (6%)
Language                                 : English
Default                                  : No
Alternate group                          : 1
Encoded date                             : UTC 2016-10-23 06:17:12
Tagged date                              : UTC 2016-10-23 06:26:52

Text
ID                                       : 4
Format                                   : Timed Text
Muxing mode                              : sbtl
Codec ID                                 : tx3g
Duration                                 : 1h 41mn
Bit rate mode                            : Variable
Bit rate                                 : 95 bps
Stream size                              : 70.9 KiB (0%)
Language                                 : English
Default                                  : Yes
Forced                                   : No
Alternate group                          : 2
Encoded date                             : UTC 2016-10-23 06:17:12
Tagged date                              : UTC 2016-10-23 06:26:52

Menu
ID                                       : 5
Codec ID                                 : text
Duration                                 : 1h 48mn
Language                                 : English
Encoded date                             : UTC 2016-10-23 06:26:52
Tagged date                              : UTC 2016-10-23 06:26:52
Bit rate mode                            : CBR
Menu For                                 : 1
00:00:00.000                             : 00:00:00.000
00:07:07.260                             : 00:07:07.260
00:14:49.680                             : 00:14:49.680
00:21:11.645                             : 00:21:11.645
00:27:08.836                             : 00:27:08.836
00:33:24.002                             : 00:33:24.002
00:39:43.256                             : 00:39:43.256
00:46:01.008                             : 00:46:01.008
00:51:49.565                             : 00:51:49.565
00:57:56.640                             : 00:57:56.640
01:05:00.271                             : 01:05:00.271
01:11:59.899                             : 01:11:59.899
01:19:28.222                             : 01:19:28.222
01:26:43.573                             : 01:26:43.573
01:30:29.799                             : 01:30:29.799
01:38:49.590                             : 01:38:49.590


Скриншоты:



Время раздачи: 24/7 (круглосуточно) (до появления первых 3-5 скачавших)
 
Не забывайте говорить Спасибо. Не уходите с раздачи!   
Торрент: Зарегистрирован [24 окт 2016, 23:35] Для скачивания .torrent
необходима регистрация
Или скачать с помощью
MediaGet
Статус:
Проверен
 
.torrent скачан: 0 раз
Хэш: 98baea212d449d38089cc3e23d9eb66ccc409ccc
Размер: 1.67 ГБ (1 797 498 425 байт)
Стать Автором раздачи
 
 
Раздал: 100 ГБ
Скачал: 0 байт
Ратио: Seed.
Сообщения: 94032
Зарегистрирован: 09 апр 2015, 22:31


  • Похожие торренты
    Ответы
    Просмотры
    Последнее сообщение

Вернуться в Видео для мобильных устройств

Ресурс не предоставляет электронные версии произведений, а занимается лишь коллекционированием и каталогизацией ссылок, присылаемых и публикуемых на форуме нашими читателями. Если вы являетесь правообладателем какого-либо представленного материала и не желаете чтобы ссылка на него находилась в нашем каталоге, свяжитесь с нами и мы незамедлительно удалим её. Файлы для обмена на трекере предоставлены пользователями сайта, и администрация не несёт ответственности за их содержание. Просьба не заливать файлы, защищенные авторскими правами, а также файлы нелегального содержания!
cron