Планета собак (15 серий) [2014-2015, Документальный, HDTV 1080i]

 
 Статистика раздачи 
Размер: 20.34 ГБ   |  Зарегистрирован: 24 окт 2016, 16:56   |   .torrent скачан: 0 раз
Сидеров: 2  [ 0 байт/сек ]     Личеров: 1  [ 0 байт/сек ]  
  

Планета собак (15 серий) [2014-2015, Документальный, HDTV 1080i]

Сообщение aLaVodka » 24 окт 2016, 16:56

Планета собак (15 серий)

Год выпуска: 2014-2015
Страна: Россия
Жанр: Документальный
Продолжительность: 15 x 26 минут
Перевод: Не требуется
Описание: Собака - лучший друг человека уже несколько тысяч лет. Где и когда собаку люди одомашнили, точно не известно. Скорее всего, это произошло на юге Африки, где до сих пор обитает самая древняя порода собак - африканнис. Точное количество пород собак в мире, наверное, не знает никто. Официально их зарегистрировано более 450. Ведущий программы "Планета Собак" Григорий Манев отправился в кругосветное путешествие по разным странам и континентам, чтобы понять, как и почему рядом с людьми появились чау-чау и чихуахуа, болонки и овчарки, сеттеры и спаниели, мастифы и ретриверы. Удивительная собачья география: от Китая, Мальты и Франции до Испании, Голландии, России и ЮАР. Повсюду Григорий встречается с собаками и каждый раз убеждается в том, что собаки и хозяева очень похожи друг на друга, где бы они ни жили.

Список серий:
01. Планета собак. Армянский волкодав гампр
02. Планета собак. Босерон
03. Планета собак. Брохольмер
04. Планета собак. Киргизский дёбет
05. Планета собак. Критская гончая
06. Планета собак. Пограничные собаки
07. Планета собак. Ризеншнауцер
08. Планета собак. Собаки города Рибэ
09. Планета собак. Собаки-спасатели
10. Планета собак. Такса
11. Планета собак. Греческий мастиф
12. Планета собак. Московская дворняга
13. Планета собак. Собаки-криминалисты
14. Планета собак. Итальянский волк
15. Планета собак. Тайган

Доп. информация: IPTV Remux (запись потока без перекодирования)

Тип релиза: HDTV 1080i
Контейнер: MKV

Видео: AVC H.264, 1920x1080i (16:9), 25 fps, 7274 kbps , 0.140 bits/pixel
Аудио: MPEG Audio, 2 channels, 192 kbps, 48KHz
Код: Выделить всё
General
Unique ID                                : 209682912620830046409776838642340061226 (0x9DBF75C426B12CE4AAE4F65F69FDE02A)
Complete name                            : 01. Планета собак. Армянский волкодав гампр.mkv
Format                                   : Matroska
Format version                           : Version 2
File size                                : 1.42 GiB
Duration                                 : 26mn 40s
Overall bit rate                         : 7 618 Kbps
Encoded date                             : UTC 2016-10-16 12:18:16
Writing application                      : mkvmerge v7.7.0 ('Six Voices') 32bit built on Feb 28 2015 23:23:00
Writing library                          : libebml v1.3.1 + libmatroska v1.4.2

Video
ID                                       : 1
Format                                   : AVC
Format/Info                              : Advanced Video Codec
Format profile                           : High@L4.0
Format settings, CABAC                   : Yes
Format settings, ReFrames                : 4 frames
Codec ID                                 : V_MPEG4/ISO/AVC
Duration                                 : 26mn 40s
Bit rate                                 : 7 274 Kbps
Width                                    : 1 920 pixels
Height                                   : 1 080 pixels
Display aspect ratio                     : 16:9
Frame rate mode                          : Constant
Frame rate                               : 25.000 fps
Color space                              : YUV
Chroma subsampling                       : 4:2:0
Bit depth                                : 8 bits
Scan type                                : MBAFF
Bits/(Pixel*Frame)                       : 0.140
Stream size                              : 1.36 GiB (95%)
Default                                  : Yes
Forced                                   : No

Audio
ID                                       : 2
Format                                   : MPEG Audio
Format version                           : Version 1
Format profile                           : Layer 2
Mode                                     : Joint stereo
Mode extension                           : Intensity Stereo + MS Stereo
Codec ID                                 : A_MPEG/L2
Codec ID/Hint                            : MP2
Duration                                 : 26mn 40s
Bit rate mode                            : Constant
Bit rate                                 : 192 Kbps
Channel(s)                               : 2 channels
Sampling rate                            : 48.0 KHz
Compression mode                         : Lossy
Stream size                              : 36.6 MiB (3%)
Language                                 : Russian
Default                                  : Yes
Forced                                   : No
 
Не забывайте говорить Спасибо. Не уходите с раздачи!   
Торрент: Зарегистрирован [24 окт 2016, 16:56] Для скачивания .torrent
необходима регистрация
Или скачать с помощью
MediaGet
Статус:
Проверен
 
.torrent скачан: 0 раз
Хэш: 000ee5221ca0da5af27ab8d6a949afedc92ca07e
Размер: 20.34 ГБ (21 837 722 929 байт)
Стать Автором раздачи
 
 
Раздал: 100 ГБ
Скачал: 0 байт
Ратио: Seed.
Сообщения: 188762
Зарегистрирован: 09 апр 2015, 20:00


  • Похожие торренты
    Ответы
    Просмотры
    Последнее сообщение

Вернуться в Флора и фауна (HD Video)

Ресурс не предоставляет электронные версии произведений, а занимается лишь коллекционированием и каталогизацией ссылок, присылаемых и публикуемых на форуме нашими читателями. Если вы являетесь правообладателем какого-либо представленного материала и не желаете чтобы ссылка на него находилась в нашем каталоге, свяжитесь с нами и мы незамедлительно удалим её. Файлы для обмена на трекере предоставлены пользователями сайта, и администрация не несёт ответственности за их содержание. Просьба не заливать файлы, защищенные авторскими правами, а также файлы нелегального содержания!
cron