Следствие вели... с Леонидом Каневским (2013) (22 выпускa) (Александр Ярославцев) [2013, Документальный цикл, криминал, HDTV 1080i]

 
 Статистика раздачи 
Размер: 60.11 ГБ   |  Зарегистрирован: 22 окт 2016, 22:32   |   .torrent скачан: 0 раз
Сидеров: 1  [ 0 байт/сек ]     Личеров: 0  [ 0 байт/сек ]  
  

Следствие вели... с Леонидом Каневским (2013) (22 выпускa) (Александр Ярославцев) [2013, Документальный цикл, криминал, HDTV 1080i]

Сообщение aLaVodka » 22 окт 2016, 22:32

Следствие вели... с Леонидом Каневским (2013)

Год выпуска: 2013
Страна: Россия
Студия: Версия
Жанр: Документальный цикл, криминал
Продолжительность: 00:40:11
Перевод: Не требуется
Русские субтитры: нет

Режиссер: Александр Ярославцев

Описание: Эти уголовные дела гремели на весь Советский Союз. По ним были написаны романы и сняты художественные фильмы. Их фигуранты — миллионеры эпохи социализма, хитроумные воры, профессиональные грабители и валютчики. Они бросили вызов советскому обществу. Вызов приняли лучшие сыщики страны. В их распоряжении не было компьютеров, сотовой связи и бойцов ОМОНа. Но это не мешало вершиться правосудию. Банда «Черная кошка», дело банды советских гангстеров конца 60-х годов, прозванных «Фантомасами», увлекательная история налетчика Леонида Пантелеева, «свободного художника-грабителя» — эти случаи вошли в историю отечественной криминалистики.

22.10.2016 _ добавил: Выпуск 243 Негритенок из Калуги 07.09.2013),
перезаливаем
Выпуск 257 Основной инстинкт (22.12.2013)
Выпуск 256 Дело живодёров (14.12.2013)
Выпуск 255 Блуждающий нерв (07.12.2013)
Выпуск 254 Дело гуманоидов (30.11.2013)
Выпуск 253 Скорпион (23.11.2013)
Выпуск 251 Смертельное угощение (09.11.2013)
Выпуск 250 Крыса (26.10.2013)
Выпуск 246 Выстрел в подъезде (28.09.2013)
Выпуск 243 Негритенок из Калуги 07.09.2013)
Выпуск 242 Зловещий остров (31.08.2013)
Выпуск 241 Школьные грехи (23.06.2013)
Выпуск 237 Кровавый Казанова (26.05.2013)
Выпуск 235 Синьор живодер (27.04.2013)
Выпуск 233 Бешеное золото (13.04.2013)
Выпуск 231 Кровь за кровь (30.03.2013)
Выпуск 230 Кровопийца (23.03.2013)
Выпуск 229 Красота должна умереть! (17.03.2013)
Выпуск 228 Знак зверя (02.03.2013)
Выпуск 227 Идеальное убийство (16.02.2013)
Выпуск 226 Отродье (09.02.2013)
Выпуск 225 Сбежавшая невеста (02.02.2013)
Выпуск 224 Снегурочка (19.01.2013)
Сэмпл: http://multi-up.com/1103572

Тип релиза: HDTV 1080i
Контейнер: TS

Видео: AVC, 1920x1080, (16:9), 25 fps, 8 471 Kbps
Аудио: MP2, 48 kHz; 2 ch; 192 kbps
Код: Выделить всё
General
ID                                       : 1 (0x1)
Complete name                            : C:\Следствие вели...с Леонидом Каневским (2013)\Выпуск 225 Сбежавшая невеста (02.02.2013).ts
Format                                   : MPEG-TS
File size                                : 2.06 GiB
Duration                                 : 40mn 11s
Overall bit rate mode                    : Variable
Overall bit rate                         : 7 343 Kbps

Video
ID                                       : 201 (0xC9)
Menu ID                                  : 2201 (0x899)
Format                                   : AVC
Format/Info                              : Advanced Video Codec
Format profile                           : [email protected]
Format settings, CABAC                   : Yes
Format settings, ReFrames                : 4 frames
Codec ID                                 : 27
Duration                                 : 40mn 11s
Bit rate                                 : 6 786 Kbps
Width                                    : 1 920 pixels
Height                                   : 1 080 pixels
Display aspect ratio                     : 16:9
Frame rate                               : 25.000 fps
Standard                                 : Component
Color space                              : YUV
Chroma subsampling                       : 4:2:0
Bit depth                                : 8 bits
Scan type                                : Interlaced
Scan type, store method                  : Separated fields
Scan order                               : Top Field First
Bits/(Pixel*Frame)                       : 0.131
Stream size                              : 1.91 GiB (92%)
Color range                              : Limited
Color primaries                          : BT.709
Transfer characteristics                 : BT.709
Matrix coefficients                      : BT.709

Audio
ID                                       : 301 (0x12D)
Menu ID                                  : 2201 (0x899)
Format                                   : MPEG Audio
Format version                           : Version 1
Format profile                           : Layer 2
Codec ID                                 : 3
Duration                                 : 40mn 11s
Bit rate mode                            : Constant
Bit rate                                 : 192 Kbps
Channel(s)                               : 2 channels
Sampling rate                            : 48.0 KHz
Compression mode                         : Lossy
Delay relative to video                  : -80ms
Stream size                              : 55.2 MiB (3%)
Language                                 : English
 
Не забывайте говорить Спасибо. Не уходите с раздачи!   
Торрент: Зарегистрирован [22 окт 2016, 22:32] Для скачивания .torrent
необходима регистрация
Или скачать с помощью
MediaGet
Статус:
Проверен
 
.torrent скачан: 0 раз
Хэш: 7f086c80914519aee9711aa836ab72bb06604f06
Размер: 60.11 ГБ (64 547 954 968 байт)
Стать Автором раздачи
 
 
Раздал: 100 ГБ
Скачал: 0 байт
Ратио: Seed.
Сообщения: 172331
Зарегистрирован: 09 апр 2015, 20:00


  • Похожие торренты
    Ответы
    Просмотры
    Последнее сообщение

Вернуться в Криминальная документалистика (HD Video)

Кто сейчас на конференции

Сейчас эту тему просматривают: нет зарегистрированных пользователей и гости: 1

Ресурс не предоставляет электронные версии произведений, а занимается лишь коллекционированием и каталогизацией ссылок, присылаемых и публикуемых на форуме нашими читателями. Если вы являетесь правообладателем какого-либо представленного материала и не желаете чтобы ссылка на него находилась в нашем каталоге, свяжитесь с нами и мы незамедлительно удалим её. Файлы для обмена на трекере предоставлены пользователями сайта, и администрация не несёт ответственности за их содержание. Просьба не заливать файлы, защищенные авторскими правами, а также файлы нелегального содержания!