Следствие вели... с Леонидом Каневским 2016 (25 выпускoв) (Александр Ярославцев) [2016, Документальный цикл, криминал, HDTV 1080i]

 
 Статистика раздачи 
Размер: 73.17 ГБ   |  Зарегистрирован: 22 окт 2016, 21:49   |   .torrent скачан: 0 раз
Сидеров: 1  [ 0 байт/сек ]     Личеров: 0  [ 0 байт/сек ]  
  

Следствие вели... с Леонидом Каневским 2016 (25 выпускoв) (Александр Ярославцев) [2016, Документальный цикл, криминал, HDTV 1080i]

Сообщение aLaVodka » 22 окт 2016, 21:49

Следствие вели... с Леонидом Каневским 2016

Год выпуска: 2016
Страна: Россия
Студия: Версия
Жанр: Документальный цикл, криминал
Продолжительность: 00:40:35
Перевод: Не требуется
Русские субтитры: нет

Режиссер: Александр Ярославцев

Описание: Эти уголовные дела гремели на весь Советский Союз. По ним были написаны романы и сняты художественные фильмы. Их фигуранты — миллионеры эпохи социализма, хитроумные воры, профессиональные грабители и валютчики. Они бросили вызов советскому обществу. Вызов приняли лучшие сыщики страны. В их распоряжении не было компьютеров, сотовой связи и бойцов ОМОНа. Но это не мешало вершиться правосудию. Банда «Черная кошка», дело банды советских гангстеров конца 60-х годов, прозванных «Фантомасами», увлекательная история налетчика Леонида Пантелеева, «свободного художника-грабителя» — эти случаи вошли в историю отечественной криминалистики.

22.10.2016 _ добавил: Выпуск 350 Любимчик и горбун (22.10.2016),
перезаливаем
Выпуск 350 Любимчик и горбун (22.10.2016)
Выпуск 349 Двойник Людмилы Гурченко (15.10.2016)
Выпуск 348 Золотое мясо (08.10.2016)
Выпуск 347 Багровое новоселье (01.10.2016)
Выпуск 346 Чулок и скальпель (24.09.2016)
Выпуск 345 Хлысты (17.09.2016)
Выпуск 344 Свой среди чужих (10.09.2016)
Выпуск 343 Итальянский клинок (03.09.2016)
Выпуск 342 Любовник с крыши (25.06.2016)
Выпуск 341 Цена любви (18.06.2016)
Выпуск 340 Мантия короля (04.06.2016)
Выпуск 339 Капитан Ричард (28.05.2016)
Выпуск 338 За тремя зайцами (21.05.2016)
Выпуск 337 Стеклянные глаза (14.05.2016)
Выпуск 336 Деньги, мясо и любовь (23.04.2016)
Выпуск 335 Маленький - наследник (16.04.2016)
Выпуск 334 Отцовская любовь (09.04.2016)
Выпуск 333 Криминальный гарем (02.04.2016)
Выпуск 332 Преступление и наказание (26.03.2016)
Выпуск 331 Удар рапирой (19.03.2016)
Выпуск 330 Порочное зачатие (12.03.2016)
Выпуск 329 Золотая клетка (05.03.2016)
Выпуск 328 Черный платок (27.02.2016)
Выпуск 327 Экипаж. Рейс на тот свет (13.02.2016)
Выпуск 326 Внебрачная дочь (06.02.2016)
Сэмпл: http://multi-up.com/1081394

Тип релиза: HDTV 1080i
Контейнер: TS

Видео: AVC, 1920x1080, (16:9), 25 fps, 8 452 Kbps
Аудио: MP2, 48 kHz; 2 ch; 192 kbps
Код: Выделить всё
General
ID                                       : 1 (0x1)
Complete name                            : Z:\Следствие вели...с Леонидом Каневским (2016)\За тремя зайцами (21.05.2016).ts
Format                                   : MPEG-TS
File size                                : 2.65 GiB
Duration                                 : 44mn 10s
Overall bit rate mode                    : Variable
Overall bit rate                         : 8 592 Kbps

Video
ID                                       : 201 (0xC9)
Menu ID                                  : 2201 (0x899)
Format                                   : AVC
Format/Info                              : Advanced Video Codec
Format profile                           : High@L4
Format settings, CABAC                   : Yes
Format settings, ReFrames                : 4 frames
Codec ID                                 : 27
Duration                                 : 44mn 11s
Bit rate                                 : 7 974 Kbps
Width                                    : 1 920 pixels
Height                                   : 1 080 pixels
Display aspect ratio                     : 16:9
Frame rate                               : 25.000 fps
Standard                                 : Component
Color space                              : YUV
Chroma subsampling                       : 4:2:0
Bit depth                                : 8 bits
Scan type                                : Interlaced
Scan type, store method                  : Separated fields
Scan order                               : Top Field First
Bits/(Pixel*Frame)                       : 0.154
Stream size                              : 2.46 GiB (93%)
Color range                              : Limited
Color primaries                          : BT.709
Transfer characteristics                 : BT.709
Matrix coefficients                      : BT.709

Audio
ID                                       : 301 (0x12D)
Menu ID                                  : 2201 (0x899)
Format                                   : MPEG Audio
Format version                           : Version 1
Format profile                           : Layer 2
Codec ID                                 : 3
Duration                                 : 44mn 11s
Bit rate mode                            : Constant
Bit rate                                 : 192 Kbps
Channel(s)                               : 2 channels
Sampling rate                            : 48.0 KHz
Compression mode                         : Lossy
Delay relative to video                  : -80ms
Stream size                              : 60.7 MiB (2%)
Language                                 : English
 
Не забывайте говорить Спасибо. Не уходите с раздачи!   
Торрент: Зарегистрирован [22 окт 2016, 21:49] Для скачивания .torrent
необходима регистрация
Или скачать с помощью
MediaGet
Статус:
Проверен
 
.torrent скачан: 0 раз
Хэш: 5c1f265dcf35cf9f65bc8c3e67250f1d80ef2eba
Размер: 73.17 ГБ (78 570 347 628 байт)
Стать Автором раздачи
 
 
Раздал: 100 ГБ
Скачал: 0 байт
Ратио: Seed.
Сообщения: 188762
Зарегистрирован: 09 апр 2015, 20:00


  • Похожие торренты
    Ответы
    Просмотры
    Последнее сообщение

Вернуться в Криминальная документалистика (HD Video)

Ресурс не предоставляет электронные версии произведений, а занимается лишь коллекционированием и каталогизацией ссылок, присылаемых и публикуемых на форуме нашими читателями. Если вы являетесь правообладателем какого-либо представленного материала и не желаете чтобы ссылка на него находилась в нашем каталоге, свяжитесь с нами и мы незамедлительно удалим её. Файлы для обмена на трекере предоставлены пользователями сайта, и администрация не несёт ответственности за их содержание. Просьба не заливать файлы, защищенные авторскими правами, а также файлы нелегального содержания!
cron