Фильмы Ясудзиро Одзу: Из-за кадра / Ozu's films: From behind the scenes [2003, документальный, кинематограф, DVDRip] дополнительные материалы

 
 Статистика раздачи 
Размер: 647 МБ   |  Зарегистрирован: 21 окт 2016, 11:49   |   .torrent скачан: 1 раз
Сидеров: 1  [ 0 байт/сек ]     Личеров: 0  [ 0 байт/сек ]  
  

Фильмы Ясудзиро Одзу: Из-за кадра / Ozu's films: From behind the scenes [2003, документальный, кинематограф, DVDRip] дополнительные материалы

Сообщение aLaVodka » 21 окт 2016, 11:49

Фильмы Ясудзиро Одзу: Из-за кадра / Ozu's films: From behind the scenes

Дата/Год выпуска: 2003
Страна: Япония
Жанр: документальный, кинематограф
Продолжительность: 00:47:43
Перевод: Субтитры
Русские субтитры: есть

Формат субтитров: softsub (SSA/ASS)
Оригинальная аудиодорожка: японский
Описание: В этой беседе о Ясудзиро Одзу и его методах работы, выпущенной компанией "Сётику" к столетию со дня рождения режиссёра, участвуют: Кодзиро Суэмацу (бывший ребёнок-актёр, звук и монтаж), Такаси Кавамата (ассистент оператора) и Сидзуо Яманоти (продюсер).

Доп. информация: перевод субтитров с английских мой

Сэмпл: http://sendfile.su/1276271

качество: DVDRip
формат: AVI
Видео: XVID, 624x464, 4:3, 1694 Кбит/сек, 23,976 кадра/сек
Аудио: AC-3, 192 Кбит/сек, 48,0 КГц, 2ch
Код: Выделить всё
Общее
Полное имя                               : D:\UP\Ozu - From Behind The Scenes (2003)\Ozu - From Behind The Scenes (2003).avi
Формат                                   : AVI
Формат/Информация                        : Audio Video Interleave
Размер файла                             : 647 Мбайт
Продолжительность                        : 47 м.
Общий поток                              : 1895 Кбит/сек
Библиотека кодирования                   : VirtualDub build 35576/release

Видео
Идентификатор                            : 0
Формат                                   : MPEG-4 Visual
Профиль формата                          : Advanced Simple@L5
Параметр BVOP формата                    : 1
Параметр QPel формата                    : Нет
Параметр GMC формата                     : Без точки перехода
Параметр матрицы формата                 : Default (MPEG)
Идентификатор кодека                     : XVID
Идентификатор кодека/Подсказка           : XviD
Продолжительность                        : 47 м.
Битрейт                                  : 1694 Кбит/сек
Ширина                                   : 624 пикселя
Высота                                   : 464 пикселя
Соотношение сторон                       : 4:3
Частота кадров                           : 23,976 кадра/сек
Цветовое пространство                    : YUV
Субдискретизация насыщенности            : 4:2:0
Битовая глубина                          : 8 бит
Тип развёртки                            : Прогрессивная
Метод сжатия                             : С потерями
Бит/(Пиксели*Кадры)                      : 0.244
Размер потока                            : 578 Мбайт (89%)
Библиотека кодирования                   : XviD 65

Аудио
Идентификатор                            : 1
Формат                                   : AC-3
Формат/Информация                        : Audio Coding 3
Расширение режима                        : CM (complete main)
Параметр Endianness формата              : Big
Идентификатор кодека                     : 2000
Продолжительность                        : 47 м.
Вид битрейта                             : Постоянный
Битрейт                                  : 192 Кбит/сек
Каналы                                   : 1 канал
Расположение каналов                     : Front: C
Частота                                  : 48,0 КГц
Битовая глубина                          : 16 бит
Метод сжатия                             : С потерями
Размер потока                            : 65,5 Мбайт (10%)
Выравнивание                             : Соединение по промежуткам
Продолжительность промежутка             : 42  мс. (1,00 видеокадр)
Время предзагрузки промежутка            : 512  мс.

Общее
Полное имя                               : D:\UP\Ozu - From Behind The Scenes (2003)\Ozu - From Behind The Scenes (2003).eng.ssa
Формат                                   : SSA
Формат/Информация                        : SubStation Alpha
Размер файла                             : 87,3 Кбайт

Текст
Формат                                   : SSA
Метод сжатия                             : Без потерь

Общее
Полное имя                               : D:\UP\Ozu - From Behind The Scenes (2003)\Ozu - From Behind The Scenes (2003).ssa
Формат                                   : SSA
Формат/Информация                        : SubStation Alpha
Размер файла                             : 87,4 Кбайт

Текст
Формат                                   : SSA
Метод сжатия                             : Без потерь




 
Не забывайте говорить Спасибо. Не уходите с раздачи!   
Торрент: Зарегистрирован [21 окт 2016, 11:49] Скачать торрент
Скачать торрент
[ Размер 13.28 КБ / Просмотров 78 ]
Статус:
Проверен
 
.torrent скачан: 1 раз
Хэш: 54aba87b0bddff5727a8b6337a45e86d69958ff7
Размер: 647 МБ (678 426 192 байт)
Стать Автором раздачи
 
 
Раздал: 100 ГБ
Скачал: 0 байт
Ратио: Seed.
Сообщения: 197290
Зарегистрирован: 09 апр 2015, 20:00


  • Похожие торренты
    Ответы
    Просмотры
    Последнее сообщение

Вернуться в Разное / некондиция (документалистика и передачи)

Ресурс не предоставляет электронные версии произведений, а занимается лишь коллекционированием и каталогизацией ссылок, присылаемых и публикуемых на форуме нашими читателями. Если вы являетесь правообладателем какого-либо представленного материала и не желаете чтобы ссылка на него находилась в нашем каталоге, свяжитесь с нами и мы незамедлительно удалим её. Файлы для обмена на трекере предоставлены пользователями сайта, и администрация не несёт ответственности за их содержание. Просьба не заливать файлы, защищенные авторскими правами, а также файлы нелегального содержания!
cron