Антропоид / Anthropoid (2016) HDRip [H.264] [MP4|1024x432]

 
 Статистика раздачи 
Размер: 1.95 ГБ   |  Зарегистрирован: 20 окт 2016, 22:36   |   .torrent скачан: 3 раз
Сидеров: 1  [ 0 байт/сек ]     Личеров: 0  [ 0 байт/сек ]  
  

Антропоид / Anthropoid (2016) HDRip [H.264] [MP4|1024x432]

Сообщение explosiveone » 20 окт 2016, 22:36

Антропоид / Anthropoid (2016) HDRip

«Resistance Has a Code Name»

Производство: Чехия, Великобритания, Франция / LD Entertainment, 22h22, Lucky Man Films
Жанр: Триллер, Военный, Биография, История

Режиссер: Шон Эллис
Актеры: Киллиан Мёрфи, Джейми Дорнан, Гарри Ллойд, Тоби Джонс, Шарлотта Ле Бон, Билл Милнер, Сэм Кили, Миш Бойко, Шон Махон, Брайан Каспе

Описание:
Картина рассказывает о ликвидации в годы Второй мировой войны одного из самых зловещих нацистских преступников, начальника Главного управления имперской безопасности третьего рейха Рейнхарда Гейдриха, который при жизни получил прозвище «Пражский мясник».


Возраст: 16+ (зрителям, достигшим 16 лет)
Рейтинг MPAA: R (лицам до 17 лет обязательно присутствие взрослого)

Релиз от: NNMClub
Продолжительность: 02:00:52
Качество видео: HDRip
Перевод: Многоголосый закадровый - (Синема УС)
Вид субтитров: Отсутствуют
Реклама: Присутствуют аудио и видео вставки рекламы.

Видео: AVC/H.264 (Main@L3.1), 1024x432 (2.40:1), 2178 Кбит/сек
Аудио #1: AAC, 2 канала, 128 Кбит/сек - русский (многоголосый закадровый)
Код:
General
Complete name                            : C:\CREATE\264mod1\out\1\Anthropoid.2016.576p.HDRip.AAC.h264.NNMclub.mp4
Format                                   : MPEG-4
Format profile                           : Base Media / Version 2
Codec ID                                 : mp42 (mp42/isom)
File size                                : 1.95 GiB
Duration                                 : 2h 0mn
Overall bit rate mode                    : Variable
Overall bit rate                         : 2 311 Kbps
Movie name                               : Anthropoid
Performer                                : Sean Ellis
Director                                 : Sean Ellis
Actor                                    : Cillian Murphy / Jamie Dornan / Charlotte Le Bon / Anna Geislerová / Harry Lloyd / Toby Jones
Screenplay by                            : Sean Ellis / Anthony Frewin
Producer                                 : Sean Ellis / Mickey Liddell / Pete Shilaimon
Genre                                    : Thriller
ContentType                              : Short Film
Description                              : Anthropoid is based on the extraordinary true story of "Operation Anthropoid," the code name for the
Recorded date                            : 2016-08-12
Encoded date                             : UTC 2016-10-20 17:18:53
Tagged date                              : UTC 2016-10-20 17:56:36
Copyright                                : © 2016 Bleecker Street Media LLC
Cover                                    : Yes
Rating                                   : None
LongDescription                          : Anthropoid is based on the extraordinary true story of "Operation Anthropoid," the code name for the Czechoslovakian operatives' mission to assassinate SS officer Reinhard Heydrich. Heydrich, the main architect behind the Final Solution, was the Reich's third in command behind Hitler and Himmler and the leader of Nazi forces in Czechoslovakia. The film follows two soldiers from the Czechoslovakian army-in-exile, Josef Gabcik (Cillian Murphy) and Jan Kubis (Jamie Dornan), who are parachuted into their occupied homeland in December 1941. With limited intelligence and little equipment in a city under lockdown, they must find a way to assassinate Heydrich, an operation that would change the face of Europe forever.
AppleStoreCountry                        : United States
AppleStoreCatalogID                      : 1138451419
ContentRating                            : mpaa|R|400|

Video
ID                                       : 1
Format                                   : AVC
Format/Info                              : Advanced Video Codec
Format profile                           :
Format settings, CABAC                   : No
Format settings, ReFrames                : 4 frames
Codec ID                                 : avc1
Codec ID/Info                            : Advanced Video Coding
Duration                                 : 2h 0mn
Bit rate                                 : 2 178 Kbps
Width                                    : 1 024 pixels
Height                                   : 432 pixels
Display aspect ratio                     : 2.40:1
Frame rate mode                          : Variable
Frame rate                               : 23.976 (24000/1001) fps
Minimum frame rate                       : 23.810 fps
Maximum frame rate                       : 24.390 fps
Color space                              : YUV
Chroma subsampling                       : 4:2:0
Bit depth                                : 8 bits
Scan type                                : Progressive
Bits/(Pixel*Frame)                       : 0.205
Stream size                              : 1.84 GiB (94%)
Writing library                          : x264 core 146 r2538 121396c
Encoding settings                        : cabac=0 / ref=3 / deblock=1:-1:-1 / analyse=0x1:0x111 / me=umh / subme=7 / psy=1 / psy_rd=1.00:0.20 / mixed_ref=1 / me_range=32 / chroma_me=1 / trellis=2 / 8x8dct=0 / cqm=0 / deadzone=21,11 / fast_pskip=0 / chroma_qp_offset=-3 / threads=18 / lookahead_threads=3 / sliced_threads=0 / nr=0 / decimate=0 / interlaced=0 / bluray_compat=0 / constrained_intra=0 / bframes=3 / b_pyramid=2 / b_adapt=2 / b_bias=0 / direct=3 / weightb=1 / open_gop=0 / weightp=0 / keyint=250 / keyint_min=23 / scenecut=40 / intra_refresh=0 / rc_lookahead=50 / rc=2pass / mbtree=1 / bitrate=2178 / ratetol=1.0 / qcomp=0.60 / qpmin=0 / qpmax=69 / qpstep=4 / cplxblur=20.0 / qblur=0.5 / vbv_maxrate=14000 / vbv_bufsize=14000 / nal_hrd=none / filler=0 / ip_ratio=1.40 / aq=1:1.00
Encoded date                             : UTC 2016-10-20 17:18:53
Tagged date                              : UTC 2016-10-20 17:24:26
Color range                              : Limited
Color primaries                          : BT.709
Transfer characteristics                 : BT.709
Matrix coefficients                      : BT.709

Audio
ID                                       : 2
Format                                   : AAC
Format/Info                              : Advanced Audio Codec
Format profile                           : LC
Codec ID                                 : 40
Duration                                 : 2h 0mn
Source duration                          : 2h 0mn
Bit rate mode                            : Variable
Bit rate                                 : 128 Kbps
Maximum bit rate                         : 158 Kbps
Channel(s)                               : 2 channels
Channel positions                        : Front: L R
Sampling rate                            : 48.0 KHz
Frame rate                               : 46.875 fps (1024 spf)
Compression mode                         : Lossy
Stream size                              : 110 MiB (6%)
Source stream size                       : 110 MiB (6%)
Language                                 : Russian
Default                                  : Yes
Alternate group                          : 1
Encoded date                             : UTC 2016-10-20 17:18:53
Tagged date                              : UTC 2016-10-20 17:24:26


Скриншоты:



Время раздачи: 24/7 (круглосуточно) (до появления первых 3-5 скачавших)
 
Не забывайте говорить Спасибо. Не уходите с раздачи!   
Торрент: Зарегистрирован [20 окт 2016, 22:36] Для скачивания .torrent
необходима регистрация
Или скачать с помощью
MediaGet
Статус:
Проверен
 
.torrent скачан: 3 раз
Хэш: ec4597cbccaee6a5e385b3c4b1c5415aff7c4547
Размер: 1.95 ГБ (2 091 580 932 байт)
Стать Автором раздачи
 
 
Раздал: 100 ГБ
Скачал: 0 байт
Ратио: Seed.
Сообщения: 94048
Зарегистрирован: 09 апр 2015, 22:31


  • Похожие торренты
    Ответы
    Просмотры
    Последнее сообщение

Вернуться в Видео для мобильных устройств

Ресурс не предоставляет электронные версии произведений, а занимается лишь коллекционированием и каталогизацией ссылок, присылаемых и публикуемых на форуме нашими читателями. Если вы являетесь правообладателем какого-либо представленного материала и не желаете чтобы ссылка на него находилась в нашем каталоге, свяжитесь с нами и мы незамедлительно удалим её. Файлы для обмена на трекере предоставлены пользователями сайта, и администрация не несёт ответственности за их содержание. Просьба не заливать файлы, защищенные авторскими правами, а также файлы нелегального содержания!
cron