Крэйзи / Havoc (2005) WEB-DLRip [H.264] [MP4|1024x428]

 
 Статистика раздачи 
Размер: 1.35 ГБ   |  Зарегистрирован: 20 окт 2016, 22:34   |   .torrent скачан: 0 раз
Сидеров: 1  [ 0 байт/сек ]     Личеров: 0  [ 0 байт/сек ]  
  

Крэйзи / Havoc (2005) WEB-DLRip [H.264] [MP4|1024x428]

Сообщение explosiveone » 20 окт 2016, 22:35

Крэйзи / Havoc (2005) WEB-DLRip

«Некоторые границы лучше не переступать»

Производство: США, Германия / Media 8 Entertainment, Stuhall Productions, S.R.O. Entertainment AG
Жанр: Триллер, Драма, Криминал

Режиссер: Барбара Коппл
Актеры: Энн Хэтэуэй, Бижу Филлипс, Фредди Родригес, Шири Эпплби, Майкл Бин, Джозеф Гордон-Левитт, Мэтью О’Лири, Лора Сан Джакомо, Майк Фогель, Рэймонд Крус

Описание:
Эллисон и Эмили из богатого района, тусуясь в местной «банде», однажды решают усилить ощущения в Восточном Лос-Анджелесе — районе реальных городских гангстеров!.. Они получили там все, что хотели… кроме второго шанса.


Возраст: 16+ (зрителям, достигшим 16 лет)
Рейтинг MPAA: R (лицам до 17 лет обязательно присутствие взрослого)

Релиз от: NNMClub
Продолжительность: 01:25:30
Качество видео: WEB-DLRip
Перевод: Дублированный - (R5)

Видео: AVC/H.264 (Main@L3.1), 1024x576 (16:9), 2000 Кбит/сек
Аудио #1: AAC, 2 канала, 128 Кбит/сек - русский (дублированный)
Аудио #2: AAC, 2 канала, 128 Кбит/сек - английский
Код:
General
Complete name                            : C:\DGI\Havoc.2005.576pWEB-DLRip.AAC.h264.NNMclub.mp4
Format                                   : MPEG-4
Format profile                           : Base Media / Version 2
Codec ID                                 : mp42 (mp42/isom)
File size                                : 1.35 GiB
Duration                                 : 1h 25mn
Overall bit rate mode                    : Variable
Overall bit rate                         : 2 264 Kbps
Movie name                               : Caos (Havoc)
Performer                                : Barbara Kopple
Director                                 : Barbara Kopple
Actor                                    : Anne Hathaway / Bijou Phillips / Shiri Appleby / Joseph Gordon-Levitt
Genre                                    : Drama
ContentType                              : Short Film
Description                              : Havoc es una incisiva mirada al mundo adolescente y al choque entre distintos mundos. Fascinante y divertida, contemporánea y trágica, este relato hilvanado al compás de la música sigue las peripecias de dos chicas de clase acomodada que abandonan la seguridad de sus hogares en las afueras de la ciudad para explorar el peligroso ambiente de Los Ángeles Este, un barrio conflictivo donde aprenden que hasta las acciones más inocentes pueden tener consecuencias. /  / Dirigida por la dos veces ganadora del Oscar Barbara Kopple, y con guión del también ganador de un Oscar Stephen Gaghan.
Recorded date                            : 2005-11-15
Encoded date                             : UTC 2016-10-20 09:30:38
Tagged date                              : UTC 2016-10-20 09:40:09
Copyright                                : © 2005 Film & Entertainment VIP Medienfonds 2 GmbH & Co. KG and MDP Filmproduktion GmbH
Cover                                    : Yes
Rating                                   : None
LongDescription                          : Havoc es una incisiva mirada al mundo adolescente y al choque entre distintos mundos. Fascinante y divertida, contemporánea y trágica, este relato hilvanado al compás de la música sigue las peripecias de dos chicas de clase acomodada que abandonan la seguridad de sus hogares en las afueras de la ciudad para explorar el peligroso ambiente de Los Ángeles Este, un barrio conflictivo donde aprenden que hasta las acciones más inocentes pueden tener consecuencias. /  / Dirigida por la dos veces ganadora del Oscar Barbara Kopple, y con guión del también ganador de un Oscar Stephen Gaghan.
AppleStoreCountry                        : Spain
AppleStoreCatalogID                      : 427500161
ContentRating                            : mpaa|Unrated|???|

Video
ID                                       : 1
Format                                   : AVC
Format/Info                              : Advanced Video Codec
Format profile                           :
Format settings, CABAC                   : No
Format settings, ReFrames                : 3 frames
Codec ID                                 : avc1
Codec ID/Info                            : Advanced Video Coding
Duration                                 : 1h 25mn
Bit rate                                 : 2 000 Kbps
Width                                    : 1 024 pixels
Height                                   : 576 pixels
Display aspect ratio                     : 16:9
Frame rate mode                          : Variable
Frame rate                               : 23.976 (24000/1001) fps
Minimum frame rate                       : 23.810 fps
Maximum frame rate                       : 24.390 fps
Color space                              : YUV
Chroma subsampling                       : 4:2:0
Bit depth                                : 8 bits
Scan type                                : Progressive
Bits/(Pixel*Frame)                       : 0.141
Stream size                              : 1.19 GiB (88%)
Writing library                          : x264 core 148 r2721+55 e19946b t_mod_Custom [8-bit@all X86_64]
Encoding settings                        : cabac=0 / ref=3 / deblock=1:-1:-1 / analyse=0x1:0x111 / me=umh / subme=7 / psy=1 / fade_compensate=0.00 / psy_rd=1.00:0.00 / mixed_ref=1 / me_range=32 / chroma_me=1 / trellis=2 / 8x8dct=0 / cqm=0 / deadzone=21,11 / fast_pskip=1 / chroma_qp_offset=-2 / threads=12 / lookahead_threads=2 / sliced_threads=0 / nr=0 / decimate=1 / interlaced=0 / bluray_compat=0 / constrained_intra=0 / fgo=0 / bframes=2 / b_pyramid=0 / b_adapt=2 / b_bias=0 / direct=3 / weightb=1 / open_gop=0 / weightp=2 / keyint=240 / keyint_min=23 / scenecut=40 / intra_refresh=0 / rc_lookahead=40 / rc=2pass / mbtree=1 / bitrate=2000 / ratetol=1.0 / qcomp=0.65 / qpmin=0:0:0 / qpmax=69:69:69 / qpstep=4 / cplxblur=20.0 / qblur=0.5 / vbv_maxrate=10000 / vbv_bufsize=10000 / nal_hrd=none / filler=0 / ip_ratio=1.40 / aq=3:0.90 / aq-sensitivity=10.00 / aq-factor=1.00:1.00:1.00 / aq2=1:0.70 / aq2-sensitivity=15.00 / aq2-factor=1.00:1.00:1.00 / aq3=3:[0.50:0.50]:[0.50:0.50]:[0.50:0.50]:[0.50:0.50] / aq3-sensitivity=10.00 / aq3-factor=[1.00:1.00]:[1.00:1.00]:[1.00:1.00] / aq3-boundary=192:64:24
Encoded date                             : UTC 2016-10-20 09:30:38
Tagged date                              : UTC 2016-10-20 09:34:54
Color range                              : Limited
Color primaries                          : BT.709
Transfer characteristics                 : BT.709
Matrix coefficients                      : BT.709
Menus                                    : 4

Audio #1
ID                                       : 2
Format                                   : AAC
Format/Info                              : Advanced Audio Codec
Format profile                           : LC
Codec ID                                 : 40
Duration                                 : 1h 25mn
Source duration                          : 1h 25mn
Bit rate mode                            : Variable
Bit rate                                 : 128 Kbps
Maximum bit rate                         : 133 Kbps
Channel(s)                               : 2 channels
Channel positions                        : Front: L R
Sampling rate                            : 48.0 KHz
Frame rate                               : 46.875 fps (1024 spf)
Compression mode                         : Lossy
Stream size                              : 78.3 MiB (6%)
Source stream size                       : 78.3 MiB (6%)
Language                                 : Russian
Default                                  : Yes
Alternate group                          : 1
Encoded date                             : UTC 2016-10-20 09:30:38
Tagged date                              : UTC 2016-10-20 09:34:54

Audio #2
ID                                       : 3
Format                                   : AAC
Format/Info                              : Advanced Audio Codec
Format profile                           : LC
Codec ID                                 : 40
Duration                                 : 1h 25mn
Source duration                          : 1h 25mn
Bit rate mode                            : Variable
Bit rate                                 : 128 Kbps
Maximum bit rate                         : 133 Kbps
Channel(s)                               : 2 channels
Channel positions                        : Front: L R
Sampling rate                            : 48.0 KHz
Frame rate                               : 46.875 fps (1024 spf)
Compression mode                         : Lossy
Stream size                              : 78.3 MiB (6%)
Source stream size                       : 78.3 MiB (6%)
Language                                 : English
Default                                  : No
Alternate group                          : 1
Encoded date                             : UTC 2016-10-20 09:30:38
Tagged date                              : UTC 2016-10-20 09:34:54

Menu
ID                                       : 4
Codec ID                                 : text
Duration                                 : 1h 25mn
Language                                 : English
Encoded date                             : UTC 2016-10-20 09:34:54
Tagged date                              : UTC 2016-10-20 09:34:54
Menu For                                 : 1
00:00:00.000                             : Main Titles
00:04:07.000                             : Spoiled Bored
00:10:48.000                             : Lunch With Dad
00:14:22.000                             : Hood Rollin'
00:19:46.000                             : Girls Night Out
00:26:13.000                             : East Side House Party
00:31:23.000                             : Loneliest Girl I Know
00:35:35.000                             : Just Looking
00:38:08.000                             : People Live Here
00:42:05.000                             : Jail Bird
00:45:38.000                             : Totally Real
00:51:16.000                             : Motel Romp
00:55:24.000                             : The Sixteenth
00:58:36.000                             : Dice Game
01:00:30.000                             : Just Sex
01:04:39.000                             : You Ain't Real
01:08:50.000                             : Police Matter
01:10:32.000                             : False Justice
01:18:23.000                             : Reality Check
01:21:29.000                             : End Credits
Bit rate mode                            : VBR


Скриншоты:



Время раздачи: 24/7 (круглосуточно) (до появления первых 3-5 скачавших)
 
Не забывайте говорить Спасибо. Не уходите с раздачи!   
Торрент: Зарегистрирован [20 окт 2016, 22:34] Для скачивания .torrent
необходима регистрация
Или скачать с помощью
MediaGet
Статус:
Проверен
 
.torrent скачан: 0 раз
Хэш: 25cd2dfffc54f3435e9e4a4c320c1f976f6d6829
Размер: 1.35 ГБ (1 451 605 403 байт)
Стать Автором раздачи
 
 
Раздал: 100 ГБ
Скачал: 0 байт
Ратио: Seed.
Сообщения: 94021
Зарегистрирован: 09 апр 2015, 22:31


  • Похожие торренты
    Ответы
    Просмотры
    Последнее сообщение

Вернуться в Видео для мобильных устройств

Ресурс не предоставляет электронные версии произведений, а занимается лишь коллекционированием и каталогизацией ссылок, присылаемых и публикуемых на форуме нашими читателями. Если вы являетесь правообладателем какого-либо представленного материала и не желаете чтобы ссылка на него находилась в нашем каталоге, свяжитесь с нами и мы незамедлительно удалим её. Файлы для обмена на трекере предоставлены пользователями сайта, и администрация не несёт ответственности за их содержание. Просьба не заливать файлы, защищенные авторскими правами, а также файлы нелегального содержания!
cron