Т-50. Истребитель пятого поколения (2013) DVDRip (2 серии из 2)

 
 Статистика раздачи 
Размер: 1.1 ГБ   |  Зарегистрирован: 20 окт 2016, 00:08   |   .torrent скачан: 278 раз
Сидеров: 5  [ 0 байт/сек ]     Личеров: 3  [ 0 байт/сек ]  
  

Т-50. Истребитель пятого поколения (2013) DVDRip (2 серии из 2)

Сообщение explosiveone » 20 окт 2016, 00:08

Т-50. Истребитель пятого поколения (2013) DVDRip (2 серии из 2)

Телекомпания: Россия, Студия «Крылья России»
Жанр: Документальный, авиация, вооружение, история

Режиссер: Андрей Кулясов

Описание:
Перспективный авиационный комплекс фронтовой авиации (ПАК ФА), иначе говоря - истребитель пятого поколения Т-50, впервые поднялся в воздух 29 января 2010 года.
Фильм рассказывает о самолёте-истребителе пятого поколения Т-50, который находится в начале своей лётной жизни. Т-50 является новейшей военной разработкой, а поэтому многое, что с ним связано, ещё долго будет скрыто под грифом «совершенно секретно». Впрочем, о главном можно уже говорить с уверенностью. Эта боевая машина будет определять облик российских военно-воздушных сил на десятилетия вперёд.
Т-50 - это не только летательный аппарат, это, прежде всего система оружия, которая оснащена новейшим электронным оборудованием и средствами поражения. Представлены уникальные кадры испытаний машины, интервью с конструкторами и лётчиками, рассказывается о конструкции самолёта и его системах (силовая установка, вооружение, системы жизнеобеспечения и спасения) и многое другое.
Также представлены американские истребители пятого поколения и отечественные опытные машины, которые предшествовали Т-50. В фильме также будет рассказано об экипировке лётчика, о системах жизнеобеспечения и аварийного покидания российского перспективного комплекса фронтовой авиации.

Релиз от: alf62
Большое спасибо gf2011, за предоставленный источник DVD!!

Продолжительность: 2 x ~ 00:38:00
Качество видео: DVDRip

Видео: Xvid, 720x400, ~1900 Kbps
Аудио: AC3, 2 ch, 192 Kbps, CBR
Код: Выделить всё
Т-50.Истребитель.пятого.поколения.(1.серия.из.2).2013.XviD.DVDRip.alf62.avi
Формат                                   : AVI
Формат/Информация                        : Audio Video Interleave
Размер файла                             : 567 Мбайт
Продолжительность                        : 37 м.
Общий поток                              : 2102 Кбит/сек
Программа кодирования                    : VirtualDubMod 1.5.10.3 | [url=http://www.virtualdub-fr.org]www.virtualdub-fr.org[/url] || (build 2550/release)
Библиотека кодирования                   : VirtualDubMod build 2550/release

Видео
Идентификатор                            : 0
Формат                                   : MPEG-4 Visual
Профиль формата                          : Advanced [email protected]
Параметр BVOP формата                    : 2
Параметр QPel формата                    : Нет
Параметр GMC формата                     : Без точки перехода
Параметр матрицы формата                 : Default (MPEG)
Идентификатор кодека                     : XVID
Идентификатор кодека/Подсказка           : XviD
Продолжительность                        : 37 м.
Битрейт                                  : 1900 Кбит/сек
Ширина                                   : 720 пикселей
Высота                                   : 400 пикселей
Соотношение сторон                       : 16:9
Частота кадров                           : 25,000 кадров/сек
Цветовое пространство                    : YUV
Субдискретизация насыщенности            : 4:2:0
Битовая глубина                          : 8 бит
Тип развёртки                            : Прогрессивная
Метод сжатия                             : С потерями
Бит/(Пиксели*Кадры)                      : 0.264
Размер потока                            : 513 Мбайт (90%)
Библиотека кодирования                   : XviD 73

Аудио
Идентификатор                            : 1
Формат                                   : AC-3
Формат/Информация                        : Audio Coding 3
Расширение режима                        : CM (complete main)
Параметр Endianness формата              : Big
Идентификатор кодека                     : 2000
Продолжительность                        : 37 м.
Вид битрейта                             : Постоянный
Битрейт                                  : 192 Кбит/сек
Каналы                                   : 2 канала
Расположение каналов                     : Front: L R
Частота                                  : 48,0 КГц
Битовая глубина                          : 16 бит
Метод сжатия                             : С потерями
Размер потока                            : 51,8 Мбайт (9%)
Выравнивание                             : Разделение по промежуткам
Продолжительность промежутка             : 40  мс. (1,00 видеокадр)
Время предзагрузки промежутка            : 500  мс.

Скриншоты:











Время раздачи: до появления первых 3-5 скачавших (до появления первых 3-5 скачавших)
 
Не забывайте говорить Спасибо. Не уходите с раздачи!   
Торрент: Зарегистрирован [20 окт 2016, 00:08] Для скачивания .torrent
необходима регистрация
Или скачать с помощью
MediaGet
Статус:
Проверен
 
.torrent скачан: 278 раз
Хэш: 5e6c9980302e7f08cd9a6f31b390bc64ef42cbca
Размер: 1.1 ГБ (1 182 771 200 байт)
Стать Автором раздачи
 
 
Раздал: 100 ГБ
Скачал: 0 байт
Ратио: Seed.
Сообщения: 82289
Зарегистрирован: 09 апр 2015, 22:31


  • Похожие торренты
    Ответы
    Просмотры
    Последнее сообщение

Вернуться в Крылья России

Кто сейчас на конференции

Сейчас эту тему просматривают: нет зарегистрированных пользователей и гости: 1

Ресурс не предоставляет электронные версии произведений, а занимается лишь коллекционированием и каталогизацией ссылок, присылаемых и публикуемых на форуме нашими читателями. Если вы являетесь правообладателем какого-либо представленного материала и не желаете чтобы ссылка на него находилась в нашем каталоге, свяжитесь с нами и мы незамедлительно удалим её. Файлы для обмена на трекере предоставлены пользователями сайта, и администрация не несёт ответственности за их содержание. Просьба не заливать файлы, защищенные авторскими правами, а также файлы нелегального содержания!