Фаберже: Особый путь в истории / Faberge: A Life of Its Own (2014) IPTVRip [H.264] [MP4|1280x720]

 
 Статистика раздачи 
Размер: 2.88 ГБ   |  Зарегистрирован: 19 окт 2016, 07:32   |   .torrent скачан: 2 раз
Сидеров: 1  [ 0 байт/сек ]     Личеров: 0  [ 0 байт/сек ]  
  

Фаберже: Особый путь в истории / Faberge: A Life of Its Own (2014) IPTVRip [H.264] [MP4|1280x720]

Сообщение explosiveone » 19 окт 2016, 07:32

Фаберже: Особый путь в истории / Faberge: A Life of Its Own (2014) IPTVRip

Производство: Великобритания, США, Швейцария, Россия, Монако, Германия, Франция / CoolConnections
Жанр: Документальный

Режиссер: Патрик Марк
Актеры: Сэмюэл Уэст,Патрик Марк

Описание:
Самая известная фамилия ювелирного мира становится объектом нового подробнейшего исследования в этом документальном фильме. Получив доступ к самым богатым частным коллекциям, в том числе и коллекции королевы Елизаветы II, режиссер картины отслеживает историю бренда от российского императорского двора до сегодняшнего дня, беседуя с ведущими мировыми экспертами и потомками семейства Фаберже.
Зрителям впервые будут представлены два редких предмета, относящихся ко всемирно известной марке. Первый — недавно обнаруженное яйцо Фаберже, считавшееся утраченным; его хозяин не представлял, что в его владении было подлинное творение дома Фаберже, и намеревался продать его на переплавку. Второй — абсолютно новое изделие, созданное специально к столетнему юбилею изготовления последнего яйца Фаберже по заказу императора Николая II.


Возраст: 12+ (зрителям, достигшим 12 лет)
Рейтинг MPAA: G (нет возрастных ограничений)
Дата мировой премьеры: 04.04.2014
Дата российской премьеры: 14.07.2015

Продолжительность: 01:27:56
Качество видео: IPTVRip
Перевод: Многоголосый закадровый

Видео: AVC/H.264, 1280x720, ~5000 Kbps
Аудио: AAC, 2 ch, 128 Kbps, CBR
Код: Выделить всё
Общее
Полное имя                               : E:\Faberge A Life of Its Own.mp4
Формат                                   : MPEG-4
Профиль формата                          : Base Media / Version 2
Идентификатор кодека                     : mp42 (mp42)
Размер файла                             : 2,88 Гбайт
Продолжительность                        : 1 ч. 20 м.
Режим общего битрейта                    : Переменный
Общий поток                              : 5135 Кбит/сек

Видео
Идентификатор                            : 1
Формат                                   : AVC
Формат/Информация                        : Advanced Video Codec
Профиль формата                          :
Параметр CABAC формата                   : Нет
Параметр ReFrames формата                : 1 кадр
Параметр GOP формата                     : M=1, N=10
Режим смешивания                         : Container profile=Baseline@3.0
Идентификатор кодека                     : avc1
Идентификатор кодека/Информация          : Advanced Video Coding
Продолжительность                        : 1 ч. 20 м.
Вид битрейта                             : Переменный
Битрейт                                  : 5002 Кбит/сек
Максимальный битрейт                     : 7500 Кбит/сек
Ширина                                   : 1280 пикселей
Высота                                   : 720 пикселей
Соотношение сторон                       : 16:9
Режим частоты кадров                     : Постоянный
Частота кадров                           : 25,000 кадров/сек
Цветовое пространство                    : YUV
Субдискретизация насыщенности            : 4:2:0
Битовая глубина                          : 8 бит
Тип развёртки                            : Прогрессивная
Бит/(Пиксели*Кадры)                      : 0.217
Размер потока                            : 2,81 Гбайт (97%)
Язык                                     : English

Аудио
Идентификатор                            : 2
Формат                                   : AAC
Формат/Информация                        : Advanced Audio Codec
Профиль формата                          : LC
Идентификатор кодека                     : 40
Продолжительность                        : 1 ч. 20 м.
Продолжительность оригинала              : 1 ч. 20 м.
Вид битрейта                             : Постоянный
Битрейт                                  : 128 Кбит/сек
Каналы                                   : 2 канала
Расположение каналов                     : Front: L R
Частота                                  : 44,1 КГц
Частота кадров                           : 43,066 кадра/сек (1024 spf)
Метод сжатия                             : С потерями
Размер потока                            : 73,5 Мбайт (2%)
Размер потока оригинала                  : 73,5 Мбайт (2%)
Заголовок                                : Stereo
Язык                                     : English
Default                                  : Да
Alternate group                          : 1

Скриншоты:




Время раздачи: 24/7 (до появления первых 3-5 скачавших)
 
Не забывайте говорить Спасибо. Не уходите с раздачи!   
Торрент: Зарегистрирован [19 окт 2016, 07:32] Для скачивания .torrent
необходима регистрация
Или скачать с помощью
MediaGet
Статус:
Проверен
 
.torrent скачан: 2 раз
Хэш: 7818d88505865697946fb0f8e069505807c65049
Размер: 2.88 ГБ (3 092 718 945 байт)
Стать Автором раздачи
 
 
Раздал: 100 ГБ
Скачал: 0 байт
Ратио: Seed.
Сообщения: 94069
Зарегистрирован: 09 апр 2015, 22:31


  • Похожие торренты
    Ответы
    Просмотры
    Последнее сообщение

Вернуться в Видео для мобильных устройств

Ресурс не предоставляет электронные версии произведений, а занимается лишь коллекционированием и каталогизацией ссылок, присылаемых и публикуемых на форуме нашими читателями. Если вы являетесь правообладателем какого-либо представленного материала и не желаете чтобы ссылка на него находилась в нашем каталоге, свяжитесь с нами и мы незамедлительно удалим её. Файлы для обмена на трекере предоставлены пользователями сайта, и администрация не несёт ответственности за их содержание. Просьба не заливать файлы, защищенные авторскими правами, а также файлы нелегального содержания!
cron