Секреты секса и любви / Kiki, el amor se hace (2016) HDRip [H.264] [MP4|1024x428]

 
 Статистика раздачи 
Размер: 1.52 ГБ   |  Зарегистрирован: 18 окт 2016, 22:10   |   .torrent скачан: 0 раз
Сидеров: 1  [ 0 байт/сек ]     Личеров: 0  [ 0 байт/сек ]  
  

Секреты секса и любви / Kiki, el amor se hace (2016) HDRip [H.264] [MP4|1024x428]

Сообщение explosiveone » 18 окт 2016, 22:10

Секреты секса и любви / Kiki, el amor se hace (2016) HDRip


Производство: Испания / Instituto de la Cinematografía y de las Artes Audiovisuales (ICAA), Mediaset España, Telecinco Cinema
Жанр: Комедия

Режиссер: Пако Леон
Актеры: Наталия де Молина, Алехандро Гарсия, Джакобо Санчес, Сильвия Рей, Пако Леон, Ана Кац, Белен Куэста, Кандела Пенья, Луис Кальехо

Описание:
Жарким летом в Мадриде пять пар в томлении страсти открывают для себя весьма неожиданные формы сексуального влечения. Изумление и страх перед неведомыми удовольствиями сменяются неконтролируемым желанием. Табу рушатся, и теперь ничто не в силах удержать героев от любовных экспериментов.


Возраст: 18+ (зрителям, достигшим 18 лет. запрещено для детей)

Релиз от: NNMClub
Продолжительность: 01:42:05
Качество видео: HDRip
Перевод: Дублированный - (iTunes)
Вид субтитров: Вшитые отключаемые
Язык субтитров: Русский, Английский
Реклама: Без рекламы

Видео: AVC/H.264 (Main@L3.0), 1024x428 (16:9), 2000 Кбит/сек
Аудио #1: AAC, 2 канала, 128 Кбит/сек - русский (дублированный)
Код:
General
Complete name                            : C:\CREATE\264mod1\out\1\Quickie Love Is So.2016.576p.HDRip.AAC.h264.NNMclub.mp4
Format                                   : MPEG-4
Format profile                           : Base Media / Version 2
Codec ID                                 : mp42 (mp42/isom)
File size                                : 1.52 GiB
Duration                                 : 1h 42mn
Overall bit rate mode                    : Variable
Overall bit rate                         : 2 133 Kbps
Movie name                               : Kiki, el amor se hace
Performer                                : Paco León
Director                                 : Paco León
Actor                                    : Paco León / Natalia De Molina / Alex Garcia / Luis Callejo / Ana Katz / Candela Pena / Belén Cuesta / Alexandra Jiménez / Luis Bermejo / Mari Paz Sayago / Rea Gutiérrez / David Mora
Genre                                    : Comedia
ContentType                              : Short Film
Description                              : Cinco divertidas historias de amor y curiosas filias sexuales coinciden en un calenturiento verano madrileño. Dacrifilia, Elefilia, Somnofilia y Harpaxofilia son algunas de las particulares formas de obtener placer que descubren los protagonistas, pero para disfrutarlas tendrán que decidir cómo integrarlas en sus vidas.
Recorded date                            : 2016-04-01
Encoded date                             : UTC 2016-10-18 17:12:30
Tagged date                              : UTC 2016-10-18 17:47:38
Copyright                                : © 2016 Vertigo Films
Cover                                    : Yes
Rating                                   : None
LongDescription                          : Cinco divertidas historias de amor y curiosas filias sexuales coinciden en un calenturiento verano madrileño. Dacrifilia, Elefilia, Somnofilia y Harpaxofilia son algunas de las particulares formas de obtener placer que descubren los protagonistas, pero para disfrutarlas tendrán que decidir cómo integrarlas en sus vidas.
AppleStoreCountry                        : Spain
AppleStoreCatalogID                      : 1098632437
ContentRating                            : mpaa|Unrated|???|

Video
ID                                       : 1
Format                                   : AVC
Format/Info                              : Advanced Video Codec
Format profile                           :
Format settings, CABAC                   : Yes
Format settings, ReFrames                : 3 frames
Codec ID                                 : avc1
Codec ID/Info                            : Advanced Video Coding
Duration                                 : 1h 42mn
Source duration                          : 1h 42mn
Bit rate                                 : 2 000 Kbps
Width                                    : 1 024 pixels
Height                                   : 428 pixels
Display aspect ratio                     : 2.40:1
Frame rate mode                          : Variable
Frame rate                               : 24.000 fps
Minimum frame rate                       : 23.810 fps
Maximum frame rate                       : 24.390 fps
Color space                              : YUV
Chroma subsampling                       : 4:2:0
Bit depth                                : 8 bits
Scan type                                : Progressive
Bits/(Pixel*Frame)                       : 0.190
Stream size                              : 1.43 GiB (94%)
Source stream size                       : 1.43 GiB (94%)
Writing library                          : x264 core 148 r2721+55 e19946b t_mod_Custom [8-bit@all X86_64]
Encoding settings                        : cabac=1 / ref=3 / deblock=1:-1:-1 / analyse=0x1:0x111 / me=umh / subme=7 / psy=1 / fade_compensate=0.00 / psy_rd=1.00:0.20 / mixed_ref=1 / me_range=32 / chroma_me=1 / trellis=2 / 8x8dct=0 / cqm=0 / deadzone=21,11 / fast_pskip=0 / chroma_qp_offset=-3 / threads=12 / lookahead_threads=2 / sliced_threads=0 / nr=0 / decimate=0 / interlaced=0 / bluray_compat=0 / constrained_intra=0 / fgo=0 / bframes=3 / b_pyramid=0 / b_adapt=2 / b_bias=0 / direct=3 / weightb=1 / open_gop=0 / weightp=2 / keyint=240 / keyint_min=24 / scenecut=40 / intra_refresh=0 / rc_lookahead=60 / rc=2pass / mbtree=1 / bitrate=2000 / ratetol=1.0 / qcomp=0.60 / qpmin=0:0:0 / qpmax=69:69:69 / qpstep=4 / cplxblur=20.0 / qblur=0.5 / vbv_maxrate=10000 / vbv_bufsize=10000 / nal_hrd=none / filler=0 / ip_ratio=1.40 / aq=3:0.90 / aq-sensitivity=10.00 / aq-factor=1.00:1.00:1.00 / aq2=1:0.80 / aq2-sensitivity=15.00 / aq2-factor=1.00:1.00:1.00 / aq3=3:[0.50:0.50]:[0.50:0.50]:[0.50:0.50]:[0.50:0.50] / aq3-sensitivity=10.00 / aq3-factor=[1.00:1.00]:[1.00:1.00]:[1.00:1.00] / aq3-boundary=192:64:24
Encoded date                             : UTC 2016-10-18 17:12:30
Tagged date                              : UTC 2016-10-18 17:19:47
Color range                              : Limited
Color primaries                          : BT.709
Transfer characteristics                 : BT.709
Matrix coefficients                      : BT.709
Menus                                    : 4

Audio
ID                                       : 2
Format                                   : AAC
Format/Info                              : Advanced Audio Codec
Format profile                           : LC
Codec ID                                 : 40
Duration                                 : 1h 42mn
Source duration                          : 1h 42mn
Bit rate mode                            : Variable
Bit rate                                 : 128 Kbps
Maximum bit rate                         : 132 Kbps
Channel(s)                               : 2 channels
Channel positions                        : Front: L R
Sampling rate                            : 48.0 KHz
Frame rate                               : 46.875 fps (1024 spf)
Compression mode                         : Lossy
Stream size                              : 93.5 MiB (6%)
Source stream size                       : 93.5 MiB (6%)
Language                                 : Russian
Default                                  : Yes
Alternate group                          : 1
Encoded date                             : UTC 2016-10-18 17:12:30
Tagged date                              : UTC 2016-10-18 17:19:47

Text
ID                                       : 3
Format                                   : Timed Text
Muxing mode                              : sbtl
Codec ID                                 : tx3g
Duration                                 : 1h 42mn
Bit rate mode                            : Variable
Bit rate                                 : 63 bps
Stream size                              : 47.4 KiB (0%)
Language                                 : English
Default                                  : Yes
Forced                                   : No
Alternate group                          : 2
Encoded date                             : UTC 2016-10-18 17:12:30
Tagged date                              : UTC 2016-10-18 17:19:47

Menu
ID                                       : 4
Codec ID                                 : text
Duration                                 : 1h 42mn
Language                                 : English
Encoded date                             : UTC 2016-10-18 17:19:47
Tagged date                              : UTC 2016-10-18 17:19:47
Bit rate mode                            : CBR
Menu For                                 : 1
00:00:00.000                             : 00:00:00.000
00:07:51.667                             : 00:07:51.667
00:13:58.000                             : 00:13:58.000
00:20:19.792                             : 00:20:19.792
00:27:09.750                             : 00:27:09.750
00:34:49.708                             : 00:34:49.708
00:40:58.167                             : 00:40:58.167
00:46:34.458                             : 00:46:34.458
00:55:08.292                             : 00:55:08.292
01:00:57.875                             : 01:00:57.875
01:07:49.875                             : 01:07:49.875
01:14:19.750                             : 01:14:19.750
01:20:49.750                             : 01:20:49.750
01:26:54.542                             : 01:26:54.542
01:34:00.583                             : 01:34:00.583


Скриншоты:



Время раздачи: 24/7 (круглосуточно) (до появления первых 3-5 скачавших)
 
Не забывайте говорить Спасибо. Не уходите с раздачи!   
Торрент: Зарегистрирован [18 окт 2016, 22:10] Для скачивания .torrent
необходима регистрация
Или скачать с помощью
MediaGet
Статус:
Проверен
 
.torrent скачан: 0 раз
Хэш: 5522fa63e63e8e85a4a6f7be8648f5a9d4fda472
Размер: 1.52 ГБ (1 634 257 334 байт)
Стать Автором раздачи
 
 
Раздал: 100 ГБ
Скачал: 0 байт
Ратио: Seed.
Сообщения: 94021
Зарегистрирован: 09 апр 2015, 22:31


  • Похожие торренты
    Ответы
    Просмотры
    Последнее сообщение

Вернуться в Видео для мобильных устройств

Ресурс не предоставляет электронные версии произведений, а занимается лишь коллекционированием и каталогизацией ссылок, присылаемых и публикуемых на форуме нашими читателями. Если вы являетесь правообладателем какого-либо представленного материала и не желаете чтобы ссылка на него находилась в нашем каталоге, свяжитесь с нами и мы незамедлительно удалим её. Файлы для обмена на трекере предоставлены пользователями сайта, и администрация не несёт ответственности за их содержание. Просьба не заливать файлы, защищенные авторскими правами, а также файлы нелегального содержания!
cron