Светская жизнь / Café Society (2016) HDRip [H.264] [MP4|1024x512]

 
 Статистика раздачи 
Размер: 1.57 ГБ   |  Зарегистрирован: 16 окт 2016, 08:17   |   .torrent скачан: 0 раз
Сидеров: 1  [ 0 байт/сек ]     Личеров: 0  [ 0 байт/сек ]  
  

Светская жизнь / Café Society (2016) HDRip [H.264] [MP4|1024x512]

Сообщение explosiveone » 16 окт 2016, 08:17

Светская жизнь / Café Society (2016) HDRip

«Anyone who is anyone will be seen at Café Society»

Производство: США / FilmNation Entertainment, Gravier Productions, Perdido Productions
Жанр: Драма, Мелодрама, Комедия

Режиссер: Вуди Аллен
Актеры: Дженни Берлин, Стив Карелл, Джесси Айзенберг, Кристен Стюарт, Блейк Лайвли, Паркер Поузи, Кори Столл, Кен Стотт, Анна Кэмп, Пол Шнайдер

Описание:
1930-е годы. Молодой человек приезжает из Нью-Йорка в Голливуд в надежде найти работу в киноиндустрии. В Лос-Анджелесе он влюбляется и обнаруживает себя в самом центре водоворота бурной светской жизни и событий, определивших дух того времени.


Возраст: 18+ (зрителям, достигшим 18 лет. запрещено для детей)
Рейтинг MPAA: PG-13 (детям до 13 лет просмотр нежелателен)

Релиз от: NNMClub
Продолжительность: 01:36:00
Качество видео: HDRip
Перевод: Дублированный - (Line)
Вид субтитров: Отсутствуют
Реклама: Присутствуют аудио и видео вставки рекламы.

Видео: AVC/H.264 (Main@L3.0), 1024x512 (2.00:1), 2200 Кбит/сек
Аудио: AAC, 2 канала, 128 Кбит/сек - русский (дублированный)
Код:
General
Complete name                            : C:\DGI\Cafe Society.2O16.576p.HDRip.AAC.h264.NNMclub.mp4
Format                                   : MPEG-4
Format profile                           : Base Media / Version 2
Codec ID                                 : mp42 (mp42/isom)
File size                                : 1.57 GiB
Duration                                 : 1h 36mn
Overall bit rate mode                    : Variable
Overall bit rate                         : 2 335 Kbps
Movie name                               : Café Society
Performer                                : Woody Allen
Director                                 : Woody Allen
Actor                                    : Jesse Eisenberg / Kristen Stewart / Steve Carell / Blake Lively / Parker Posey / Corey Stoll / Jeannie Berlin / Ken Stott
Screenplay by                            : Woody Allen
Producer                                 : Letty Aronson / Stephen Tenenbaum / Edward Walson
Genre                                    : Comedy
ContentType                              : Short Film
Description                              : Set in the 1930s, Woody Allen’s bittersweet romance CAFÉ SOCIETY follows Bronx-born Bobby Dorfman (
Recorded date                            : 2016-07-15
Encoded date                             : UTC 2016-10-15 06:20:39
Tagged date                              : UTC 2016-10-15 06:34:24
Cover                                    : Yes
Rating                                   : None
LongDescription                          : Set in the 1930s, Woody Allen’s bittersweet romance CAFÉ SOCIETY follows Bronx-born Bobby Dorfman (Jesse Eisenberg) to Hollywood, where he falls in love, and back to New York, where he is swept up in the vibrant world of high society nightclub life. With CAFÉ SOCIETY, Woody Allen conjures up a 1930s world that has passed to tell a deeply romantic tale of dreams that never die.
AppleStoreCountry                        : United States
AppleStoreCatalogID                      : 1129415889
ContentRating                            : mpaa|PG-13|300|

Video
ID                                       : 1
Format                                   : AVC
Format/Info                              : Advanced Video Codec
Format profile                           : Main@L3
Format settings, CABAC                   : No
Format settings, ReFrames                : 3 frames
Codec ID                                 : avc1
Codec ID/Info                            : Advanced Video Coding
Duration                                 : 1h 36mn
Bit rate                                 : 2 200 Kbps
Width                                    : 1 024 pixels
Height                                   : 512 pixels
Display aspect ratio                     : 2.000
Frame rate mode                          : Variable
Frame rate                               : 23.976 (24000/1001) fps
Minimum frame rate                       : 23.810 fps
Maximum frame rate                       : 24.390 fps
Color space                              : YUV
Chroma subsampling                       : 4:2:0
Bit depth                                : 8 bits
Scan type                                : Progressive
Bits/(Pixel*Frame)                       : 0.175
Stream size                              : 1.48 GiB (94%)
Writing library                          : x264 core 148 r2721+55 e19946b t_mod_Custom [8-bit@all X86_64]
Encoding settings                        : cabac=0 / ref=3 / deblock=1:-1:-1 / analyse=0x1:0x111 / me=umh / subme=7 / psy=1 / fade_compensate=0.00 / psy_rd=1.00:0.20 / mixed_ref=1 / me_range=32 / chroma_me=1 / trellis=2 / 8x8dct=0 / cqm=0 / deadzone=21,11 / fast_pskip=0 / chroma_qp_offset=-3 / threads=12 / lookahead_threads=2 / sliced_threads=0 / nr=0 / decimate=0 / interlaced=0 / bluray_compat=0 / constrained_intra=0 / fgo=0 / bframes=2 / b_pyramid=0 / b_adapt=2 / b_bias=0 / direct=3 / weightb=1 / open_gop=0 / weightp=2 / keyint=240 / keyint_min=23 / scenecut=40 / intra_refresh=0 / rc_lookahead=50 / rc=2pass / mbtree=1 / bitrate=2200 / ratetol=1.0 / qcomp=0.70 / qpmin=0:0:0 / qpmax=69:69:69 / qpstep=4 / cplxblur=20.0 / qblur=0.5 / vbv_maxrate=10000 / vbv_bufsize=10000 / nal_hrd=none / filler=0 / ip_ratio=1.40 / aq=3:0.90 / aq-sensitivity=10.00 / aq-factor=1.00:1.00:1.00 / aq2=1:0.90 / aq2-sensitivity=15.00 / aq2-factor=1.00:1.00:1.00 / aq3=3:[0.50:0.50]:[0.50:0.50]:[0.50:0.50]:[0.50:0.50] / aq3-sensitivity=10.00 / aq3-factor=[1.00:1.00]:[1.00:1.00]:[1.00:1.00] / aq3-boundary=192:64:24
Encoded date                             : UTC 2016-10-15 06:20:39
Tagged date                              : UTC 2016-10-15 06:30:58
Color range                              : Limited
Matrix coefficients                      : BT.709

Audio
ID                                       : 2
Format                                   : AAC
Format/Info                              : Advanced Audio Codec
Format profile                           : LC
Codec ID                                 : 40
Duration                                 : 1h 36mn
Source duration                          : 1h 36mn
Bit rate mode                            : Variable
Bit rate                                 : 128 Kbps
Maximum bit rate                         : 131 Kbps
Channel(s)                               : 2 channels
Channel positions                        : Front: L R
Sampling rate                            : 48.0 KHz
Frame rate                               : 46.875 fps (1024 spf)
Compression mode                         : Lossy
Stream size                              : 87.9 MiB (5%)
Source stream size                       : 87.9 MiB (5%)
Language                                 : Russian
Default                                  : Yes
Alternate group                          : 1
Encoded date                             : UTC 2016-10-15 06:20:39
Tagged date                              : UTC 2016-10-15 06:30:58

Скриншоты:



Время раздачи: 24/7 (круглосуточно) (до появления первых 3-5 скачавших)
 
Не забывайте говорить Спасибо. Не уходите с раздачи!   
Торрент: Зарегистрирован [16 окт 2016, 08:17] Для скачивания .torrent
необходима регистрация
Или скачать с помощью
MediaGet
Статус:
Проверен
 
.torrent скачан: 0 раз
Хэш: 2b67391b42eefd93240507044c85dbc6fafae124
Размер: 1.57 ГБ (1 681 133 775 байт)
Стать Автором раздачи
 
 
Раздал: 100 ГБ
Скачал: 0 байт
Ратио: Seed.
Сообщения: 94007
Зарегистрирован: 09 апр 2015, 22:31


  • Похожие торренты
    Ответы
    Просмотры
    Последнее сообщение

Вернуться в Видео для мобильных устройств

Ресурс не предоставляет электронные версии произведений, а занимается лишь коллекционированием и каталогизацией ссылок, присылаемых и публикуемых на форуме нашими читателями. Если вы являетесь правообладателем какого-либо представленного материала и не желаете чтобы ссылка на него находилась в нашем каталоге, свяжитесь с нами и мы незамедлительно удалим её. Файлы для обмена на трекере предоставлены пользователями сайта, и администрация не несёт ответственности за их содержание. Просьба не заливать файлы, защищенные авторскими правами, а также файлы нелегального содержания!
cron