Пришельцы в Америке / Just Visiting (2001) HDRip [H.264] [MP4|1024x554]

 
 Статистика раздачи 
Размер: 1.48 ГБ   |  Зарегистрирован: 16 окт 2016, 08:14   |   .torrent скачан: 0 раз
Сидеров: 1  [ 0 байт/сек ]     Личеров: 0  [ 0 байт/сек ]  
  

Пришельцы в Америке / Just Visiting (2001) HDRip [H.264] [MP4|1024x554]

Сообщение explosiveone » 16 окт 2016, 08:14

Пришельцы в Америке / Just Visiting (2001) HDRip

«They're not just from another time, they're from France»

Производство: Франция, США / Gaumont, Hollywood Pictures, Bruin Grip Services
Жанр: Фантастика, Фэнтези, Комедия

Режиссер: Жан-Мари Пуаре
Актеры: Жан Рено, Кристиан Клавье, Кристина Эпплгэйт, Мэттью Росс, Тэра Рид, Бриджитт Уилсон

Описание:
Новая уморительная комедия о приключениях средневекового рыцаря и его слуги, попавших из XII века в наше время. В голливудской версии знакомые герои из французской комедии «Коридоры времени» граф Тибо и его слуга Андре из-за ошибки мага попадают в современный Чикаго. Там они встречают прапраправнучку Тибо Джулию, и она помогает им вернуться из сумасшедшего XXI века в свое время. Чужие в мире машин и компьютеров, Тибо и Андре производят маленький переполох в большом городе.


Возраст: 12+ (зрителям, достигшим 12 лет)
Рейтинг MPAA: PG-13 (детям до 13 лет просмотр нежелателен)

Релиз от: NNMClub
Продолжительность: 01:28:25
Качество видео: HDRip
Перевод: Дублированный - (Мосфильм-Мастер), Двуголосый закадровый - (R5), Одноголосый закадровый - (Ю. Живов)
Вид субтитров: Вшитые отключаемые
Язык субтитров: Русский

Видео: AVC/H.264 (Main@L3.1), 1024x436 (2.35:1), 2000 Кбит/сек
Аудио #1: AAC, 2 канала, 128 Кбит/сек - русский (дублированный)
Аудио #2: AAC, 2 канала, 128 Кбит/сек - русский (многоголосый закадровый)
Аудио #3: AAC, 2 канала, 128 Кбит/сек - русский (одноголосый закадровый)
Аудио #4: AAC, 2 канала, 128 Кбит/сек - английский
Код:
General
Complete name                            : C:\CREATE\264mod1\out\1\Just Visiting.2001.576p.HDRip.AAC.h264.NNMclub.mp4
Format                                   : MPEG-4
Format profile                           : Base Media / Version 2
Codec ID                                 : mp42 (mp42/isom)
File size                                : 1.48 GiB
Duration                                 : 1h 28mn
Overall bit rate mode                    : Variable
Overall bit rate                         : 2 394 Kbps
Movie name                               : Just Visiting
Performer                                : Jean-Marie Poiré
Director                                 : Jean-Marie Poiré
Actor                                    : Jean Reno / Christina Applegate / Christian Clavier / Matthew Ross / Tara Reid / Bridgette Wilson / George Plimpton / Malcolm McDowell
Screenplay by                            : Christian Clavier / Jean-Marie Poiré / John Hughes
Genre                                    : Comedy
ContentType                              : Short Film
Description                              : An American retelling of the 1993 French comedy "Les visiteurs." In the film, a French nobleman,
Recorded date                            : 2001-04-08
Encoded date                             : UTC 2016-10-15 16:30:44
Tagged date                              : UTC 2016-10-15 16:49:29
Copyright                                : © 2001 Hollywood Pictures Co., All Rights Reserved
Cover                                    : Yes
Rating                                   : None
LongDescription                          : An American retelling of the 1993 French comedy "Les visiteurs." In the film, a French nobleman, count Thibault of Malfete and his servant Andre find themselves in modern-day Chicago - transported from the 12th century due to a wizard's flawed time-travel potion. Confused, lost and overwhelmed, they meet Thibault's descendant Julia Malfete and her scheming fiancé Hunter. Thibault and Andre soon realize they must quickly find a way back to their own time....otherwise Julia and Thibault's entire lineage will never exist. With their timeless values of honor and courage, Thibault and Andre wreak hilarious havoc as they foil diabolical plots in both the 12th and 21st centuries.
AppleStoreCountry                        : United States
AppleStoreCatalogID                      : 736131157
ContentRating                            : mpaa|PG-13|300|

Video
ID                                       : 1
Format                                   : AVC
Format/Info                              : Advanced Video Codec
Format profile                           :
Format settings, CABAC                   : No
Format settings, ReFrames                : 3 frames
Codec ID                                 : avc1
Codec ID/Info                            : Advanced Video Coding
Duration                                 : 1h 28mn
Bit rate                                 : 2 000 Kbps
Width                                    : 1 024 pixels
Height                                   : 436 pixels
Display aspect ratio                     : 2.35:1
Frame rate mode                          : Variable
Frame rate                               : 23.976 (24000/1001) fps
Minimum frame rate                       : 23.810 fps
Maximum frame rate                       : 24.390 fps
Color space                              : YUV
Chroma subsampling                       : 4:2:0
Bit depth                                : 8 bits
Scan type                                : Progressive
Bits/(Pixel*Frame)                       : 0.187
Stream size                              : 1.24 GiB (84%)
Writing library                          : x264 core 148 r2721+55 e19946b t_mod_Custom [8-bit@all X86_64]
Encoding settings                        : cabac=0 / ref=3 / deblock=1:-1:-1 / analyse=0x1:0x111 / me=umh / subme=7 / psy=1 / fade_compensate=0.00 / psy_rd=1.00:0.20 / mixed_ref=1 / me_range=32 / chroma_me=1 / trellis=2 / 8x8dct=0 / cqm=0 / deadzone=21,11 / fast_pskip=0 / chroma_qp_offset=-3 / threads=12 / lookahead_threads=2 / sliced_threads=0 / nr=0 / decimate=0 / interlaced=0 / bluray_compat=0 / constrained_intra=0 / fgo=0 / bframes=2 / b_pyramid=0 / b_adapt=2 / b_bias=0 / direct=3 / weightb=1 / open_gop=0 / weightp=2 / keyint=240 / keyint_min=23 / scenecut=40 / intra_refresh=0 / rc_lookahead=50 / rc=2pass / mbtree=1 / bitrate=2000 / ratetol=1.0 / qcomp=0.70 / qpmin=0:0:0 / qpmax=69:69:69 / qpstep=4 / cplxblur=20.0 / qblur=0.5 / vbv_maxrate=10000 / vbv_bufsize=10000 / nal_hrd=none / filler=0 / ip_ratio=1.40 / aq=3:0.90 / aq-sensitivity=10.00 / aq-factor=1.00:1.00:1.00 / aq2=1:0.90 / aq2-sensitivity=15.00 / aq2-factor=1.00:1.00:1.00 / aq3=3:[0.50:0.50]:[0.50:0.50]:[0.50:0.50]:[0.50:0.50] / aq3-sensitivity=10.00 / aq3-factor=[1.00:1.00]:[1.00:1.00]:[1.00:1.00] / aq3-boundary=192:64:24
Encoded date                             : UTC 2016-10-15 16:30:44
Tagged date                              : UTC 2016-10-15 16:43:42
Color range                              : Limited
Matrix coefficients                      : BT.709

Audio #1
ID                                       : 2
Format                                   : AAC
Format/Info                              : Advanced Audio Codec
Format profile                           : LC
Codec ID                                 : 40
Duration                                 : 1h 28mn
Source duration                          : 1h 28mn
Bit rate mode                            : Variable
Bit rate                                 : 128 Kbps
Maximum bit rate                         : 132 Kbps
Channel(s)                               : 2 channels
Channel positions                        : Front: L R
Sampling rate                            : 48.0 KHz
Frame rate                               : 46.875 fps (1024 spf)
Compression mode                         : Lossy
Stream size                              : 81.0 MiB (5%)
Source stream size                       : 81.0 MiB (5%)
Language                                 : Russian
Default                                  : Yes
Alternate group                          : 1
Encoded date                             : UTC 2016-10-15 16:30:44
Tagged date                              : UTC 2016-10-15 16:43:42

Audio #2
ID                                       : 3
Format                                   : AAC
Format/Info                              : Advanced Audio Codec
Format profile                           : LC
Codec ID                                 : 40
Duration                                 : 1h 28mn
Source duration                          : 1h 28mn
Bit rate mode                            : Variable
Bit rate                                 : 128 Kbps
Maximum bit rate                         : 133 Kbps
Channel(s)                               : 2 channels
Channel positions                        : Front: L R
Sampling rate                            : 48.0 KHz
Frame rate                               : 46.875 fps (1024 spf)
Compression mode                         : Lossy
Stream size                              : 81.0 MiB (5%)
Source stream size                       : 81.0 MiB (5%)
Language                                 : Russian
Default                                  : No
Alternate group                          : 1
Encoded date                             : UTC 2016-10-15 16:30:44
Tagged date                              : UTC 2016-10-15 16:43:42

Audio #3
ID                                       : 4
Format                                   : AAC
Format/Info                              : Advanced Audio Codec
Format profile                           : LC
Codec ID                                 : 40
Duration                                 : 1h 28mn
Source duration                          : 1h 28mn
Bit rate mode                            : Variable
Bit rate                                 : 128 Kbps
Maximum bit rate                         : 131 Kbps
Channel(s)                               : 2 channels
Channel positions                        : Front: L R
Sampling rate                            : 48.0 KHz
Frame rate                               : 46.875 fps (1024 spf)
Compression mode                         : Lossy
Stream size                              : 81.0 MiB (5%)
Source stream size                       : 81.0 MiB (5%)
Language                                 : Russian
Default                                  : No
Alternate group                          : 1
Encoded date                             : UTC 2016-10-15 16:30:44
Tagged date                              : UTC 2016-10-15 16:43:42

Text
ID                                       : 5
Format                                   : Timed Text
Muxing mode                              : sbtl
Codec ID                                 : tx3g
Duration                                 : 1h 23mn
Bit rate mode                            : Variable
Bit rate                                 : 86 bps
Stream size                              : 52.4 KiB (0%)
Language                                 : Russian
Default                                  : Yes
Forced                                   : No
Alternate group                          : 2
Encoded date                             : UTC 2016-10-15 16:30:44
Tagged date                              : UTC 2016-10-15 16:43:42


Скриншоты:



Время раздачи: 24/7 (круглосуточно) (до появления первых 3-5 скачавших)
 
Не забывайте говорить Спасибо. Не уходите с раздачи!   
Торрент: Зарегистрирован [16 окт 2016, 08:14] Для скачивания .torrent
необходима регистрация
Или скачать с помощью
MediaGet
Статус:
Проверен
 
.torrent скачан: 0 раз
Хэш: 18a989f55f9a05e7bfd3bbad82e7dedcbcc39302
Размер: 1.48 ГБ (1 587 658 586 байт)
Стать Автором раздачи
 
 
Раздал: 100 ГБ
Скачал: 0 байт
Ратио: Seed.
Сообщения: 94085
Зарегистрирован: 09 апр 2015, 22:31


  • Похожие торренты
    Ответы
    Просмотры
    Последнее сообщение

Вернуться в Видео для мобильных устройств

Ресурс не предоставляет электронные версии произведений, а занимается лишь коллекционированием и каталогизацией ссылок, присылаемых и публикуемых на форуме нашими читателями. Если вы являетесь правообладателем какого-либо представленного материала и не желаете чтобы ссылка на него находилась в нашем каталоге, свяжитесь с нами и мы незамедлительно удалим её. Файлы для обмена на трекере предоставлены пользователями сайта, и администрация не несёт ответственности за их содержание. Просьба не заливать файлы, защищенные авторскими правами, а также файлы нелегального содержания!
cron