VA - DJ Viper-Garage Sound System_Mix001 (2006) [FLAC|Lossless|image + .cue] <House, Tech House>

 
 Статистика раздачи 
Размер: 510.98 МБ   |  Зарегистрирован: 16 окт 2016, 07:17   |   .torrent скачан: 2 раз
Сидеров: 1  [ 0 байт/сек ]     Личеров: 0  [ 0 байт/сек ]  
  

VA - DJ Viper-Garage Sound System_Mix001 (2006) [FLAC|Lossless|image + .cue] <House, Tech House>

Сообщение explosiveone » 16 окт 2016, 07:17

VA - DJ Viper-Garage Sound System_Mix001 (2006)

Год: 2006
Жанр: House, Tech House
Издание: World Club Music- ПРЗ CD54058
Продолжительность: 01:02:25

Кодек: FLAC
Битрейт: Lossless
Тип рипа: image + .cue

Треклист:
01. Coco Silco - Ola (5:41)
02. Harold Heath - Long Relationships (Asad Rizvi Remix) (6:13)
03. Davide & Pedro - Glue (4:12)
04. King Roc - Pressure (4:37)
05. Plexxo - Gamma Ray (3:33)
06. T-Total - Give Me Funk (Original) (6:53)
07. Di Miro - My Exhibition (Exhibition Mix) (4:45)
08. Mal Black & Dee Leviense - Splinter (5:45)
09. A2Z - Reverse Jetlag (4:32)
10. A Few Chicks Ft. Paul - U Wish I Have (Johnjon & Chopstick Remix) (6:03)
11. John Dahlback Ft. Erika Gellermark - Nothing Is Real (Mark Knight Remix) (5:31)
12. Benjamin Balensi Vs. Mone DJ's - Samba De Calypso (4:41)
Код: Выделить всё
Exact Audio Copy V1.1 from 23. June 2015

EAC extraction logfile from 13. October 2016, 19:38

DJ Viper / Garage Sound System_Mix001

Used drive  : ASUS    SDRW-08D2S-U   Adapter: 8  ID: 6

Read mode               : Secure
Utilize accurate stream : Yes
Defeat audio cache      : Yes
Make use of C2 pointers : No

Read offset correction                      : 6
Overread into Lead-In and Lead-Out          : No
Fill up missing offset samples with silence : Yes
Delete leading and trailing silent blocks   : No
Null samples used in CRC calculations       : Yes
Used interface                              : Installed external ASPI interface

Used output format              : User Defined Encoder
Selected bitrate                : 128 kBit/s
Quality                         : High
Add ID3 tag                     : No
Command line compressor         : D:\flac-1.3.1-win\win64\flac.exe
Additional command line options : -8 -V -T "ARTIST=%artist%" -T "TITLE=%title%" -T "ALBUM=%albumtitle%" -T "DATE=%year%" -T "TRACKNUMBER=%tracknr%" -T "GENRE=%genre%" -T "COMMENT=ripped by Andy aka yetiisyou" %source%

TOC of the extracted CD

     Track |   Start  |  Length  | Start sector | End sector
    ---------------------------------------------------------
        1  |  0:00.00 |  5:40.55 |         0    |    25554
        2  |  5:40.55 |  6:12.49 |     25555    |    53503
        3  | 11:53.29 |  4:11.46 |     53504    |    72374
        4  | 16:05.00 |  4:37.08 |     72375    |    93157
        5  | 20:42.08 |  3:32.50 |     93158    |   109107
        6  | 24:14.58 |  6:53.08 |    109108    |   140090
        7  | 31:07.66 |  4:45.00 |    140091    |   161465
        8  | 35:52.66 |  5:45.00 |    161466    |   187340
        9  | 41:37.66 |  4:32.36 |    187341    |   207776
       10  | 46:10.27 |  6:03.02 |    207777    |   235003
       11  | 52:13.29 |  5:30.67 |    235004    |   259820
       12  | 57:44.21 |  4:40.53 |    259821    |   280873

Range status and errors

Selected range

     Filename E:\!Ripped by Andy aka yetiisyou\VA - DJ Viper - Garage Sound System_Mix001 [ПРЗ CD54058] [2006]\DJ Viper - Garage Sound System_Mix001.wav

     Peak level 98.9 %
     Extraction speed 4.7 X
     Range quality 99.9 %
     Test CRC B661D8F3
     Copy CRC B661D8F3
     Copy OK

No errors occurred

AccurateRip summary

Track  1  not present in database
Track  2  not present in database
Track  3  not present in database
Track  4  not present in database
Track  5  not present in database
Track  6  not present in database
Track  7  not present in database
Track  8  not present in database
Track  9  not present in database
Track 10  not present in database
Track 11  not present in database
Track 12  not present in database

None of the tracks are present in the AccurateRip database

End of status report

---- CUETools DB Plugin V2.1.6

[CTDB TOCID: zBcWn1YE_CNdM1VTc31JIqZ17O8-] disk not present in database
Submit result: zBcWn1YE_CNdM1VTc31JIqZ17O8- has been uploaded

==== Log checksum 1800A631B8445B3DC75164D33AC606175E8A6046524FCCD1A8AE54FE2C432686 ====
Код: Выделить всё
REM GENRE House
REM DATE 2006
REM DISCID B60EA00C
REM COMMENT "ExactAudioCopy v1.1"
PERFORMER "DJ Viper"
TITLE "Garage Sound System_Mix001"
FILE "DJ Viper - Garage Sound System_Mix001.flac" WAVE
  TRACK 01 AUDIO
    TITLE "Ola"
    PERFORMER "Coco Silco"
    INDEX 01 00:00:00
  TRACK 02 AUDIO
    TITLE "Long Relationships (Asad Rizvi Remix)"
    PERFORMER "Harold Heath"
    INDEX 01 05:40:55
  TRACK 03 AUDIO
    TITLE "Glue"
    PERFORMER "Davide & Pedro"
    INDEX 01 11:53:29
  TRACK 04 AUDIO
    TITLE "Pressure"
    PERFORMER "King Roc"
    INDEX 01 16:05:00
  TRACK 05 AUDIO
    TITLE "Gamma Ray"
    PERFORMER "Plexxo"
    INDEX 01 20:42:08
  TRACK 06 AUDIO
    TITLE "Give Me Funk (Original)"
    PERFORMER "T-Total"
    INDEX 01 24:14:58
  TRACK 07 AUDIO
    TITLE "My Exhibition (Exhibition Mix)"
    PERFORMER "Di Miro"
    INDEX 01 31:07:66
  TRACK 08 AUDIO
    TITLE "Splinter"
    PERFORMER "Mal Black & Dee Leviense"
    INDEX 01 35:52:66
  TRACK 09 AUDIO
    TITLE "Reverse Jetlag"
    PERFORMER "A2Z"
    INDEX 01 41:37:66
  TRACK 10 AUDIO
    TITLE "U Wish I Have (Johnjon & Chopstick Remix)"
    PERFORMER "A Few Chicks Ft. Paul"
    INDEX 01 46:10:27
  TRACK 11 AUDIO
    TITLE "Nothing Is Real (Mark Knight Remix)"
    PERFORMER "John Dahlback Ft. Erika Gellermark"
    INDEX 01 52:13:29
  TRACK 12 AUDIO
    TITLE "Samba De Calypso"
    PERFORMER "Benjamin Balensi Vs. Mone DJ's"
    INDEX 01 57:44:21
Код: Выделить всё
-----------------------

DON'T MODIFY THIS FILE

-----------------------

PERFORMER: auCDtect Task Manager, ver. 1.6.0 RC1 build 1.6.0.1
Copyright (c) 2008-2010 y-soft. All rights reserved
[url=http://y-soft.org]http://y-soft.org[/url]

ANALYZER: auCDtect: CD records authenticity detector, version 0.8.2
Copyright (c) 2004 Oleg Berngardt. All rights reserved.
Copyright (c) 2004 Alexander Djourik. All rights reserved.

FILE: DJ Viper - Garage Sound System_Mix001.flac
  Size: 468026585 Hash: DDD5CD03A160B01F81CF5594E674C9C9 Accuracy: -m0
  Conclusion: CDDA 100%
  Signature: 99F7CA77430B1A88E51FDFDF94B6DC20F5FACC2E
 
Не забывайте говорить Спасибо. Не уходите с раздачи!   
Торрент: Зарегистрирован [16 окт 2016, 07:17] Скачать торрент
Скачать торрент
[ Размер 21.22 КБ / Просмотров 10 ]
Статус:
Проверен
 
.torrent скачан: 2 раз
Хэш: dcc234300597a8998926c7dcb532419e274b6282
Размер: 510.98 МБ (535 802 338 байт)
Стать Автором раздачи
 
 
Раздал: 100 ГБ
Скачал: 0 байт
Ратио: Seed.
Сообщения: 108882
Зарегистрирован: 09 апр 2015, 22:31


  • Похожие торренты
    Ответы
    Просмотры
    Последнее сообщение

Вернуться в House, Techno, Electro, Minimal (транзит Lossless)

Ресурс не предоставляет электронные версии произведений, а занимается лишь коллекционированием и каталогизацией ссылок, присылаемых и публикуемых на форуме нашими читателями. Если вы являетесь правообладателем какого-либо представленного материала и не желаете чтобы ссылка на него находилась в нашем каталоге, свяжитесь с нами и мы незамедлительно удалим её. Файлы для обмена на трекере предоставлены пользователями сайта, и администрация не несёт ответственности за их содержание. Просьба не заливать файлы, защищенные авторскими правами, а также файлы нелегального содержания!
cron