CNN: Семидесятые / The Seventies (2015) SATRip (1-8 серий из 8 )

 
 Статистика раздачи 
Размер: 4.65 ГБ   |  Зарегистрирован: 16 окт 2016, 07:11   |   .torrent скачан: 0 раз
Сидеров: 1  [ 0 байт/сек ]     Личеров: 0  [ 0 байт/сек ]  
  

CNN: Семидесятые / The Seventies (2015) SATRip (1-8 серий из 8 )

Сообщение explosiveone » 16 окт 2016, 07:11

CNN: Семидесятые / The Seventies (2015) SATRip (1-8 серий из 8 )

Телекомпания: США, Herzog & Company, Playtone
Жанр: Документальный, история, кинохроника

Режиссер: Кристофер Коуэн, Кирк Сэдаски
В ролях: Дуглас Бринкли, Крис Коннелли, Тим Нафтали, Рик Перлштейн, Дэн Ратер, Джефферсон Коуи, Рене Грэм, Хилари Браун, Пэт Бьюкэнэн, Роберт Даллек

Описание:
"Семидесятые" подхватывает некоторые сюжеты первой части проекта тех же создателей - "Шестидесятых" - и переносит нас в эпоху групп Blondie и KISS, когда радикальные феминистки и борцы за права сексуальных меньшинств впервые громко заявляют о своём существовании. В то же самое время впервые появляется международный терроризм, а развитие телевидения превращает телеэфир в самый мощный инструмент политики и пропаганды. Джон Леннон и Йоко Оно, Дэвид Боуи и Led Zeppelin, Ричард Никсон, юный Майкл Джексон и Джонни Кэш – герои 70-х до сих пор хорошо нам знакомы. Сериал погружает зрителей в мир хорошо узнаваемых и любимых образов, для многих связанных с детством – ведь именно поколение, рожденное в 70-х, сегодняшние 35-40 летние, играют наиболее активную роль в обществе.



Продолжительность: 8 x ~ 00:41:40
Качество видео: SATRip
Перевод: Двуголосый закадровый, профессиональный

Видео: Xvid, 720x400, ~1797 kbps
Аудио: AC3, 2 ch, 192 kbps, CBR
Код: Выделить всё
Общее
Полное имя                               : F:\КИНО\The Seventise\01_Television Gets Real.avi
Формат                                   : AVI
Формат/Информация                        : Audio Video Interleave
Размер файла                             : 595 Мбайт
Продолжительность                        : 41 м. 42 с.
Общий поток                              : 1995 Кбит/сек
Программа кодирования                    : TMPGEnc Video Mastering Works 5 Version. 5.0.6.38
Библиотека кодирования                   : TMPGEnc Video Mastering Works 5 Version. 5.0.6.38

Видео
Идентификатор                            : 0
Формат                                   : MPEG-4 Visual
Профиль формата                          : Advanced Simple@L5
Параметр BVOP формата                    : 2
Параметр QPel формата                    : Нет
Параметр GMC формата                     : Без точки перехода
Параметр матрицы формата                 : Default (H.263)
Режим смешивания                         : Сжатый битовый поток
Идентификатор кодека                     : XVID
Идентификатор кодека/Подсказка           : XviD
Продолжительность                        : 41 м. 42 с.
Битрейт                                  : 1796 Кбит/сек
Ширина                                   : 720 пикселей
Высота                                   : 400 пикселей
Соотношение сторон                       : 16:9
Частота кадров                           : 25,000 кадров/сек
Цветовое пространство                    : YUV
Субдискретизация насыщенности            : 4:2:0
Битовая глубина                          : 8 бит
Тип развёртки                            : Прогрессивная
Метод сжатия                             : С потерями
Бит/(Пиксели*Кадры)                      : 0.249
Размер потока                            : 536 Мбайт (90%)
Библиотека кодирования                   : XviD 73

Аудио
Идентификатор                            : 1
Формат                                   : AC-3
Формат/Информация                        : Audio Coding 3
Расширение режима                        : CM (complete main)
Параметр Endianness формата              : Big
Идентификатор кодека                     : 2000
Продолжительность                        : 41 м. 41 с.
Вид битрейта                             : Постоянный
Битрейт                                  : 192 Кбит/сек
Каналы                                   : 2 канала
Расположение каналов                     : Front: L R
Частота                                  : 48,0 КГц
Частота кадров                           : 31,250 кадров/сек (1536 spf)
Метод сжатия                             : С потерями
Размер потока                            : 57,3 Мбайт (10%)
Выравнивание                             : Соединение по промежуткам
Продолжительность промежутка             : 240  мс. (6,00 видеокадров)
Время предзагрузки промежутка            : 224  мс.
01. Реальность на экране / Television Gets Real
02. США против Никсона / The United States vs. Nixon
03. Почётный мир / Peace with Honor
04. Что происходит / What's Goin' On
05. Положение в стране желает оставлять лучшего / The State of the Union Is Not Good
06. Террор дома и за рубежом / Terror at Home and Abroad
07. Битва полов / Battle of the Sexes
08. Преступления и культы / Crimes & Cults

Скриншоты:







Время раздачи: с 18:00 до 23:00 (до появления первых 3-5 скачавших)
 
Не забывайте говорить Спасибо. Не уходите с раздачи!   
Торрент: Зарегистрирован [16 окт 2016, 07:11] Для скачивания .torrent
необходима регистрация
Или скачать с помощью
MediaGet
Статус:
Проверен
 
.torrent скачан: 0 раз
Хэш: 1b3b1679581a1c3f9f14e99b21314866e8c5739b
Размер: 4.65 ГБ (4 997 021 022 байт)
Стать Автором раздачи
 
 
Раздал: 100 ГБ
Скачал: 0 байт
Ратио: Seed.
Сообщения: 87902
Зарегистрирован: 09 апр 2015, 22:31


  • Похожие торренты
    Ответы
    Просмотры
    Последнее сообщение

Вернуться в Зарубежные TV-бренды

Кто сейчас на конференции

Сейчас эту тему просматривают: нет зарегистрированных пользователей и гости: 1

Ресурс не предоставляет электронные версии произведений, а занимается лишь коллекционированием и каталогизацией ссылок, присылаемых и публикуемых на форуме нашими читателями. Если вы являетесь правообладателем какого-либо представленного материала и не желаете чтобы ссылка на него находилась в нашем каталоге, свяжитесь с нами и мы незамедлительно удалим её. Файлы для обмена на трекере предоставлены пользователями сайта, и администрация не несёт ответственности за их содержание. Просьба не заливать файлы, защищенные авторскими правами, а также файлы нелегального содержания!