Проект "Альфа" (1990) WEBRip [H.264] [MP4|868x718@1000x718]

 
 Статистика раздачи 
Размер: 1.33 ГБ   |  Зарегистрирован: 16 окт 2016, 06:48   |   .torrent скачан: 0 раз
Сидеров: 1  [ 0 байт/сек ]     Личеров: 0  [ 0 байт/сек ]  
  

Проект "Альфа" (1990) WEBRip [H.264] [MP4|868x718@1000x718]

Сообщение explosiveone » 16 окт 2016, 06:48

Проект "Альфа" (1990) WEBRip

Производство: СССР / Объединение-студия "Кинематографист"
Жанр: Военный, Боевик

Режиссер: Евгений Шерстобитов
Актеры: Юрий Маляров, Софья Горшкова, Светлана Дирина, Георгий Дворников, Анатолий Ведёнкин, Али Самедов, Николай Малашенко, Сергей Агашков, Александр Жуковин, Борис Руднев, Анатолий Голик, Виктор Чеботарев, Анатолий Лукьяненко

Описание:
Капитан Чайка обнаруживает в советских территориальных водах установленные западными разведслужбами радиобуи и подвергается нападению. Отразив врага, экипаж благополучно доставляет радиобуй на борт корабля...



Продолжительность: 01:25:03
Качество видео: WEBRip

Видео: AVC/H.264, 868x718@1000x718, ~2040 Kbps
Аудио: AAC, 2 ch, 192 Kbps, CBR
Код: Выделить всё
Общее
Полное имя                               : U:\Проект «Альфа» (1990)\Проект «Альфа» (1990) WebRip.mp4
Формат                                   : MPEG-4
Профиль формата                          : JVT
Идентификатор кодека                     : avc1 (avc1/mp42)
Размер файла                             : 1,33 Гбайт
Продолжительность                        : 1 ч. 25 м.
Режим общего битрейта                    : Переменный
Общий поток                              : 2244 Кбит/сек
Дата кодирования                         : UTC 2016-05-31 20:03:00
Дата пометки                             : UTC 2016-05-31 20:03:00

Видео
Идентификатор                            : 1
Формат                                   : AVC
Формат/Информация                        : Advanced Video Codec
Профиль формата                          :
Параметр CABAC формата                   : Да
Параметр ReFrames формата                : 2 кадра
Параметр GOP формата                     : M=3, N=30
Идентификатор кодека                     : avc1
Идентификатор кодека/Информация          : Advanced Video Coding
Продолжительность                        : 1 ч. 25 м.
Вид битрейта                             : Переменный
Битрейт                                  : 2040 Кбит/сек
Максимальный битрейт                     : 22,0 Мбит/сек
Ширина                                   : 868 пикселей
Высота                                   : 718 пикселей
Соотношение сторон                       : 1,393
Режим частоты кадров                     : Постоянный
Частота кадров                           : 25,000 кадров/сек
Цветовое пространство                    : YUV
Субдискретизация насыщенности            : 4:2:0
Битовая глубина                          : 8 бит
Тип развёртки                            : Прогрессивная
Бит/(Пиксели*Кадры)                      : 0.131
Размер потока                            : 1,21 Гбайт (91%)
Язык                                     : English
Дата кодирования                         : UTC 2016-05-31 20:03:00
Дата пометки                             : UTC 2016-05-31 20:03:00

Аудио
Идентификатор                            : 2
Формат                                   : AAC
Формат/Информация                        : Advanced Audio Codec
Профиль формата                          : LC
Идентификатор кодека                     : 40
Продолжительность                        : 1 ч. 25 м.
Продолжительность оригинала              : 1 ч. 25 м.
Вид битрейта                             : Постоянный
Битрейт                                  : 192 Кбит/сек
Каналы                                   : 2 канала
Расположение каналов                     : Front: L R
Частота                                  : 48,0 КГц
Частота кадров                           : 46,875 кадров/сек (1024 spf)
Метод сжатия                             : С потерями
Размер потока                            : 117 Мбайт (9%)
Размер потока оригинала                  : 117 Мбайт (9%)
Язык                                     : English
Дата кодирования                         : UTC 2016-05-31 20:03:00
Дата пометки                             : UTC 2016-05-31 20:03:00

Скриншоты:




Все одноименные релизы в Клубе

Сравнение скриншотов c Проект «Альфа» (1990) HDTV [H.264/1080i]
Время раздачи: С 18:00 до 23:00 (до появления первых 3-5 скачавших)
 
Не забывайте говорить Спасибо. Не уходите с раздачи!   
Торрент: Зарегистрирован [16 окт 2016, 06:48] Для скачивания .torrent
необходима регистрация
Или скачать с помощью
MediaGet
Статус:
Проверен
 
.torrent скачан: 0 раз
Хэш: 6ddc7b2f49a3941afff0310bf2c0b286d49bf770
Размер: 1.33 ГБ (1 431 770 892 байт)
Стать Автором раздачи
 
 
Раздал: 100 ГБ
Скачал: 0 байт
Ратио: Seed.
Сообщения: 94059
Зарегистрирован: 09 апр 2015, 22:31


  • Похожие торренты
    Ответы
    Просмотры
    Последнее сообщение

Вернуться в Видео для мобильных устройств

Ресурс не предоставляет электронные версии произведений, а занимается лишь коллекционированием и каталогизацией ссылок, присылаемых и публикуемых на форуме нашими читателями. Если вы являетесь правообладателем какого-либо представленного материала и не желаете чтобы ссылка на него находилась в нашем каталоге, свяжитесь с нами и мы незамедлительно удалим её. Файлы для обмена на трекере предоставлены пользователями сайта, и администрация не несёт ответственности за их содержание. Просьба не заливать файлы, защищенные авторскими правами, а также файлы нелегального содержания!
cron