Солярис (1972) HDRip [H.264] [MP4|1024x436]

 
 Статистика раздачи 
Размер: 2.79 ГБ   |  Зарегистрирован: 14 окт 2016, 01:06   |   .torrent скачан: 2 раз
Сидеров: 1  [ 0 байт/сек ]     Личеров: 0  [ 0 байт/сек ]  
  

Солярис (1972) HDRip [H.264] [MP4|1024x436]

Сообщение explosiveone » 14 окт 2016, 01:06

Солярис (1972) HDRip


Производство: СССР / Творческое объединение писателей и киноработников, Мосфильм, Unit Four
Жанр: Фантастика, Драма, Детектив

Режиссер: Андрей Тарковский
Актеры: Наталья Бондарчук, Донатас Банионис, Юри Ярвет, Владислав Дворжецкий, Николай Гринько, Анатолий Солоницын, Ольга Барнет, Виталик Кердимун, Ольга Кизилова, Татьяна Малых

Описание:
На космическую станцию, сотрудники которой давно и тщетно пытаются сладить с загадкой планеты Солярис, покрытой Океаном, прибывает новый обитатель, психолог Крис Кельвин, чтобы разобраться в странных сообщениях, поступающих со станции, и «закрыть» ее вместе со всей бесплодной «соляристикой». Поначалу ему кажется, что немногие уцелевшие на станции ученые сошли с ума. Потом он и сам становится жертвой жуткого наваждения: ему является его бывшая возлюбленная Хари, некогда на земле покончившая с собой.


Возраст: 12+ (зрителям, достигшим 12 лет)
Рейтинг MPAA: PG (рекомендуется присутствие родителей)

Релиз от: NNMClub
Продолжительность: 02:46:49
Качество видео: HDRip
Перевод: Не требуется
Вид субтитров: Отсутствуют
Реклама: Без рекламы

Видео: AVC/H.264 (Main@L3.0), 1024x436 (2.35:1), 2250 Кбит/сек
Аудио #1: AAC, 2 канала, 128 Кбит/сек - русский
Код:
General
Complete name                            : C:\CREATE\264mod1\out\Solaris.1972.576p.HDRip.AAC.h264.NNMclub.mp4
Format                                   : MPEG-4
Format profile                           : Base Media / Version 2
Codec ID                                 : mp42 (mp42/isom)
File size                                : 2.79 GiB
Duration                                 : 2h 46mn
Overall bit rate mode                    : Variable
Overall bit rate                         : 2 393 Kbps
Movie name                               : Solaris
Performer                                : Andrei Tarkovsky
Director                                 : Andrei Tarkovsky
Actor                                    : Natalya Bondarchuk / Donatas Banionis / Yuri Yarvet / Vladislav Dvorzhetsky / Nikolai Grinko / Anatoly Solonitsyn
Screenplay by                            : Fridrikh Gorenshtein
Genre                                    : Drama
ContentType                              : Short Film
Description                              : Ground control has been receiving strange transmissions from the three remaining residents of the Solaris space station. When cosmonaut and psychologist Kris Kelvin is sent to investigate, he experiences the strange phenomena that afflict the Solaris crew, sending him on a voyage into the darkest recesses of his own consciousness. In Solaris, legendary Russian filmmaker Andrei Tarkovsky creates a brilliantly original science-fiction epic that challenges our preconceived notions of love, truth, and humanity itself.
Recorded date                            : 1972-03-20
Encoded date                             : UTC 2016-10-13 18:07:28
Tagged date                              : UTC 2016-10-13 18:13:30
Copyright                                : © 1972 Mosfilm Studios
Cover                                    : Yes
Rating                                   : None
LongDescription                          : Ground control has been receiving strange transmissions from the three remaining residents of the Solaris space station. When cosmonaut and psychologist Kris Kelvin is sent to investigate, he experiences the strange phenomena that afflict the Solaris crew, sending him on a voyage into the darkest recesses of his own consciousness. In Solaris, legendary Russian filmmaker Andrei Tarkovsky creates a brilliantly original science-fiction epic that challenges our preconceived notions of love, truth, and humanity itself.
AppleStoreCountry                        : United States
AppleStoreCatalogID                      : 460704828
ContentRating                            : mpaa|Unrated|???|

Video
ID                                       : 1
Format                                   : AVC
Format/Info                              : Advanced Video Codec
Format profile                           : Main@L3
Format settings, CABAC                   : No
Format settings, ReFrames                : 3 frames
Codec ID                                 : avc1
Codec ID/Info                            : Advanced Video Coding
Duration                                 : 2h 46mn
Bit rate                                 : 2 250 Kbps
Width                                    : 1 024 pixels
Height                                   : 436 pixels
Display aspect ratio                     : 2.35:1
Frame rate mode                          : Variable
Frame rate                               : 23.976 (24000/1001) fps
Minimum frame rate                       : 23.810 fps
Maximum frame rate                       : 24.390 fps
Color space                              : YUV
Chroma subsampling                       : 4:2:0
Bit depth                                : 8 bits
Scan type                                : Progressive
Bits/(Pixel*Frame)                       : 0.210
Stream size                              : 2.62 GiB (94%)
Writing library                          : x264 core 148 r2721+55 e19946b t_mod_Custom [8-bit@all X86_64]
Encoding settings                        : cabac=0 / ref=3 / deblock=1:-1:-1 / analyse=0x1:0x131 / me=umh / subme=7 / psy=1 / fade_compensate=0.00 / psy_rd=1.00:0.20 / mixed_ref=1 / me_range=32 / chroma_me=1 / trellis=2 / 8x8dct=0 / cqm=0 / deadzone=21,11 / fast_pskip=0 / chroma_qp_offset=-3 / threads=14 / lookahead_threads=2 / sliced_threads=0 / nr=0 / decimate=0 / interlaced=0 / bluray_compat=0 / constrained_intra=0 / fgo=0 / bframes=2 / b_pyramid=0 / b_adapt=2 / b_bias=0 / direct=3 / weightb=1 / open_gop=0 / weightp=2 / keyint=240 / keyint_min=23 / scenecut=40 / intra_refresh=0 / rc_lookahead=50 / rc=2pass / mbtree=1 / bitrate=2250 / ratetol=1.0 / qcomp=0.70 / qpmin=0:0:0 / qpmax=69:69:69 / qpstep=4 / cplxblur=20.0 / qblur=0.5 / vbv_maxrate=9000 / vbv_bufsize=10000 / nal_hrd=none / filler=0 / ip_ratio=1.40 / aq=3:0.80 / aq-sensitivity=10.00 / aq-factor=1.00:1.00:1.00 / aq2=1:0.80 / aq2-sensitivity=13.00 / aq2-factor=1.00:1.00:1.00 / aq3=4:[0.50:0.50]:[0.55:0.55]:[0.55:0.55]:[0.55:0.55] / aq3-sensitivity=10.00 / aq3-factor=[1.00:1.00]:[1.00:1.00]:[1.00:1.00] / aq3-boundary=192:64:24
Encoded date                             : UTC 2016-10-13 18:07:28
Tagged date                              : UTC 2016-10-13 18:13:22
Color range                              : Limited
Color primaries                          : BT.709
Transfer characteristics                 : BT.709
Matrix coefficients                      : BT.709
Menus                                    : 3

Audio
ID                                       : 2
Format                                   : AAC
Format/Info                              : Advanced Audio Codec
Format profile                           : LC
Codec ID                                 : 40
Duration                                 : 2h 46mn
Bit rate mode                            : Variable
Bit rate                                 : 144 Kbps
Maximum bit rate                         : 169 Kbps
Channel(s)                               : 2 channels
Channel positions                        : Front: L R
Sampling rate                            : 48.0 KHz
Frame rate                               : 46.875 fps (1024 spf)
Compression mode                         : Lossy
Stream size                              : 169 MiB (6%)
Language                                 : Russian
Default                                  : Yes
Alternate group                          : 1
Encoded date                             : UTC 2016-10-13 18:07:28
Tagged date                              : UTC 2016-10-13 18:13:22

Menu
ID                                       : 3
Codec ID                                 : text
Duration                                 : 2h 46mn
Language                                 : Russian
Encoded date                             : UTC 2016-10-13 18:13:22
Tagged date                              : UTC 2016-10-13 18:13:22
Bit rate mode                            : CBR
Menu For                                 : 1
00:00:00.000                             : 00:00:00.000
00:10:46.312                             : 00:10:46.312
00:20:46.579                             : 00:20:46.579
00:31:10.035                             : 00:31:10.035
00:41:31.447                             : 00:41:31.447
00:51:30.546                             : 00:51:30.546
01:02:40.923                             : 01:02:40.924
01:12:37.937                             : 01:12:37.937
01:19:04.782                             : 01:19:04.782
01:30:31.134                             : 01:30:31.134
01:44:10.327                             : 01:44:10.327
01:55:02.270                             : 01:55:02.270
02:06:06.392                             : 02:06:06.392
02:13:07.646                             : 02:13:07.646
02:23:11.958                             : 02:23:11.958
02:33:09.347                             : 02:33:09.347


Производство: СССР / Творческое объединение писателей и киноработников, Мосфильм, Unit Four
[b]Жанр:
Фантастика, Драма, Детектив
Режиссер: Андрей Тарковский
Актеры: Наталья Бондарчук, Донатас Банионис, Юри Ярвет, Владислав Дворжецкий, Николай Гринько, Анатолий Солоницын, Ольга Барнет, Виталик Кердимун, Ольга Кизилова, Татьяна Малых
Описание:
На космическую станцию, сотрудники которой давно и тщетно пытаются сладить с загадкой планеты Солярис, покрытой Океаном, прибывает новый обитатель, психолог Крис Кельвин, чтобы разобраться в странных сообщениях, поступающих со станции, и «закрыть» ее вместе со всей бесплодной «соляристикой». Поначалу ему кажется, что немногие уцелевшие на станции ученые сошли с ума. Потом он и сам становится жертвой жуткого наваждения: ему является его бывшая возлюбленная Хари, некогда на земле покончившая с собой.
Продолжительность: 02:46:49
Качество видео: HDRip
Перевод: Не требуется
Вид субтитров: Отсутствуют
Реклама: Без рекламы
Скриншоты:



Время раздачи: 24/7 (круглосуточно) (до появления первых 3-5 скачавших)
 
Не забывайте говорить Спасибо. Не уходите с раздачи!   
Торрент: Зарегистрирован [14 окт 2016, 01:06] Для скачивания .torrent
необходима регистрация
Или скачать с помощью
MediaGet
Статус:
Проверен
 
.torrent скачан: 2 раз
Хэш: f1c49a4316c0b2d68b46c74a67f28a9096163acd
Размер: 2.79 ГБ (2 994 480 177 байт)
Стать Автором раздачи
 
 
Раздал: 100 ГБ
Скачал: 0 байт
Ратио: Seed.
Сообщения: 94049
Зарегистрирован: 09 апр 2015, 22:31


  • Похожие торренты
    Ответы
    Просмотры
    Последнее сообщение

Вернуться в Видео для мобильных устройств

Ресурс не предоставляет электронные версии произведений, а занимается лишь коллекционированием и каталогизацией ссылок, присылаемых и публикуемых на форуме нашими читателями. Если вы являетесь правообладателем какого-либо представленного материала и не желаете чтобы ссылка на него находилась в нашем каталоге, свяжитесь с нами и мы незамедлительно удалим её. Файлы для обмена на трекере предоставлены пользователями сайта, и администрация не несёт ответственности за их содержание. Просьба не заливать файлы, защищенные авторскими правами, а также файлы нелегального содержания!
cron