Коммуна / Kollektivet (2016) HDRip [H.264] [MP4|1024x432]

 
 Статистика раздачи 
Размер: 1.77 ГБ   |  Зарегистрирован: 14 окт 2016, 01:05   |   .torrent скачан: 0 раз
Сидеров: 1  [ 0 байт/сек ]     Личеров: 0  [ 0 байт/сек ]  
  

Коммуна / Kollektivet (2016) HDRip [H.264] [MP4|1024x432]

Сообщение explosiveone » 14 окт 2016, 01:05

Коммуна / Kollektivet (2016) HDRip

„Ein kleines Haus hält unseren Geist klein”

Производство: Дания, Швеция, Нидерланды / Zentropa Entertainments, Danmarks Radio (DR), Det Danske Filminstitut
Жанр: Драма

Режиссер: Томас Винтерберг
Актеры: Ульрих Томсен, Фарес Фарес, Трине Дюрхольм, Хелена Рейнгорд Ньюманн, Джули Аньет Ванг, Ларс Ранте, Марта Софи Вольстром Хансен, Мэдс Ретер, Оле Дюпон, Маунус Миллан.

Описание:
В огромной вилле, расположенной в фешенебельном районе Копенгагена, Эрик и его жена Анна, воплощая давнюю мечту, создают коммуну близких по духу людей, готовых жить под одной крышей. Общие интересы, беседы, вечеринки полны эйфории и дарят ощущение подлинного единства. До тех пор, пока Эрик не приводит в дом свою новую возлюбленную…


Возраст: 18+ (зрителям, достигшим 18 лет. запрещено для детей)

Релиз от: NNMClub
Продолжительность: 01:51:42
Качество видео: HDRip
Перевод: Дублированный - (iTunes)
Вид субтитров: Вшитые отключаемые
Язык субтитров: Датский
Реклама: Без рекламы

Видео: AVC/H.264 (Main@L3.1), 1024x432 (2.35:1), 2000 Кбит/сек
Аудио #1: AAC, 2 канала, 128 Кбит/сек - русский (дублированный)
Аудио #2: AAC, 2 канала, 128 Кбит/сек - датский
Код:
General
Complete name                            : C:\DGI\Kollektivet.2016.576p.HDRip.AAC.h264.NNMclub.mp4
Format                                   : MPEG-4
Format profile                           : Base Media
Codec ID                                 : isom (isom/iso2/avc1/mp41)
File size                                : 1.77 GiB
Duration                                 : 1h 51mn
Overall bit rate mode                    : Variable
Overall bit rate                         : 2 265 Kbps
Movie name                               : Die Kommune
Performer                                : Thomas Vinterberg
Director                                 : Thomas Vinterberg
Actor                                    : Trine Dyrholm / Ulrich Thomsen / Helene Reingaard Neumann / Martha Sofie Wallstrøm Hansen / Lars Ranthe / Fares Fares / Magnus Millang / Julie Agnete Vang / Anne Gry Henningsen
Screenplay by                            : Thomas Vinterberg / Tobias Lindholm
Producer                                 : Sisse Graum Jørgensen / Morten Kaufmann
Genre                                    : Drama
ContentType                              : Short Film
Description                              : DIE KOMMUNE erzählt die Geschichte von Anna und Erik, die ihr konventionelles Familienleben aufgeben
Recorded date                            : 2016-04-21
Tagged date                              : UTC 2016-10-13 19:22:51
Copyright                                : © 2016 Prokino
Cover                                    : Yes
Rating                                   : Explicit / None
LongDescription                          : „Ein kleines Haus hält unseren Geist klein”, findet die Fernsehsprecherin Anna. Sie überzeugt ihren Mann Erik, einen Architekturdozenten um die fünfzig, in seiner frisch geerbten Villa mit Tochter Freja und ein paar Bekannten eine Kommune zu gründen. Fortan bestimmen sie gemeinsam die Grundregeln des Zusammenlebens, essen, feiern und streiten miteinander. Die Realisierung von Annas Traum scheint perfekt. Doch dann beginnt Erik eine Affäre mit einer seiner Studentinnen. Und Anna schlägt das Ungeheuerliche vor: Auch für die schöne Emma soll Platz in der Kommune sein … Thomas Vinterberg (Das Fest) porträtiert auf heitere und anrührende Weise die experimentierfreudige 70er-Jahre Generation, die dem Idealismus eine Chance geben wollte. Ausgezeichnet mit dem Silbernen Bären 2016 für die Beste Darstellerin.
AppleStoreCountry                        : Germany
AppleStoreCatalogID                      : 1096286076
ContentRating                            : de-movie|Ab 12 Jahren|200|
country                                  : Дания /  Швеция /  Нидерланды
encoding_info                            : MATROSKA / WEBM > MP4 Произвольный / H264 > X264 VBR-2P 2000kbps Произвольный / AC3 > AAC CBR 128kbps LC / DTS > AAC CBR 128kbps LC
imdb_rating                              : 6.60
original_title                           : Kollektivet
rating                                   : 6.438

Video
ID                                       : 1
Format                                   : AVC
Format/Info                              : Advanced Video Codec
Format profile                           :
Format settings, CABAC                   : No
Format settings, ReFrames                : 3 frames
Codec ID                                 : avc1
Codec ID/Info                            : Advanced Video Coding
Duration                                 : 1h 51mn
Bit rate                                 : 2 000 Kbps
Width                                    : 1 024 pixels
Height                                   : 432 pixels
Display aspect ratio                     : 2.35:1
Original display aspect ratio            : 2.35:1
Frame rate mode                          : Constant
Frame rate                               : 24.000 fps
Color space                              : YUV
Chroma subsampling                       : 4:2:0
Bit depth                                : 8 bits
Scan type                                : Progressive
Bits/(Pixel*Frame)                       : 0.188
Stream size                              : 1.56 GiB (88%)
Writing library                          : x264 core 148 r2721M 72d53ab
Encoding settings                        : cabac=0 / ref=3 / deblock=1:-1:-1 / analyse=0x1:0x131 / me=umh / subme=7 / psy=1 / psy_rd=1.00:0.15 / mixed_ref=1 / me_range=32 / chroma_me=1 / trellis=1 / 8x8dct=0 / cqm=0 / deadzone=21,11 / fast_pskip=1 / chroma_qp_offset=-3 / threads=9 / lookahead_threads=1 / sliced_threads=0 / nr=0 / decimate=1 / interlaced=0 / bluray_compat=0 / constrained_intra=0 / bframes=3 / b_pyramid=0 / b_adapt=2 / b_bias=0 / direct=3 / weightb=1 / open_gop=0 / weightp=0 / keyint=240 / keyint_min=24 / scenecut=40 / intra_refresh=0 / rc_lookahead=50 / rc=2pass / mbtree=1 / bitrate=2000 / ratetol=1.0 / qcomp=0.60 / qpmin=0 / qpmax=69 / qpstep=4 / cplxblur=20.0 / qblur=0.5 / vbv_maxrate=14000 / vbv_bufsize=14000 / nal_hrd=none / filler=0 / ip_ratio=1.40 / aq=1:0.90
Language                                 : Danish
Menus                                    : 6

Audio #1
ID                                       : 2
Format                                   : AAC
Format/Info                              : Advanced Audio Codec
Format profile                           : LC
Codec ID                                 : 40
Duration                                 : 1h 51mn
Bit rate mode                            : Variable
Bit rate                                 : 128 Kbps
Maximum bit rate                         : 133 Kbps
Channel(s)                               : 2 channels
Channel positions                        : Front: L R
Sampling rate                            : 48.0 KHz
Frame rate                               : 46.875 fps (1024 spf)
Compression mode                         : Lossy
Stream size                              : 102 MiB (6%)
Language                                 : Russian
Default                                  : Yes
Alternate group                          : 1
Menus                                    : 6

Audio #2
ID                                       : 3
Format                                   : AAC
Format/Info                              : Advanced Audio Codec
Format profile                           : LC
Codec ID                                 : 40
Duration                                 : 1h 51mn
Bit rate mode                            : Variable
Bit rate                                 : 128 Kbps
Maximum bit rate                         : 132 Kbps
Channel(s)                               : 2 channels
Channel positions                        : Front: L R
Sampling rate                            : 48.0 KHz
Frame rate                               : 46.875 fps (1024 spf)
Compression mode                         : Lossy
Stream size                              : 102 MiB (6%)
Language                                 : Danish
Default                                  : No
Alternate group                          : 1
Menus                                    : 6

Text #1
ID                                       : 4
Format                                   : Timed Text
Muxing mode                              : sbtl
Codec ID                                 : tx3g
Duration                                 : 1h 51mn
Bit rate mode                            : Variable
Bit rate                                 : 56 bps
Stream size                              : 45.9 KiB (0%)
Title                                    : Danish
Language                                 : Danish
Default                                  : Yes
Forced                                   : No
Alternate group                          : 2
Menus                                    : 6

Text #2
ID                                       : 5
Format                                   : Timed Text
Muxing mode                              : sbtl
Codec ID                                 : tx3g
Duration                                 : 1h 51mn
Bit rate mode                            : Variable
Bit rate                                 : 57 bps
Stream size                              : 46.3 KiB (0%)
Title                                    : Danish SDH
Language                                 : Danish
Default                                  : No
Forced                                   : No
Alternate group                          : 2
Menus                                    : 6

Menu #1
ID                                       : 6
Codec ID                                 : text
Duration                                 : 1h 51mn
Language                                 : English
Bit rate mode                            : CBR
Menu For                                 : 1,2,3,4,5
00:00:00.000                             : 00:00:00.000
00:09:59.542                             : 00:09:59.542
00:20:00.000                             : 00:20:00.000
00:29:59.958                             : 00:29:59.958
00:39:59.792                             : 00:39:59.792
00:49:59.542                             : 00:49:59.542
00:59:59.625                             : 00:59:59.625
01:09:59.583                             : 01:09:59.583
01:19:59.792                             : 01:19:59.792
01:29:59.583                             : 01:29:59.583
01:40:00.000                             : 01:40:00.000

Menu #2
00:00:00.000                             : 00:00:00.000
00:09:59.542                             : 00:09:59.542
00:20:00.000                             : 00:20:00.000
00:29:59.958                             : 00:29:59.958
00:39:59.792                             : 00:39:59.792
00:49:59.542                             : 00:49:59.542
00:59:59.625                             : 00:59:59.625
01:09:59.582                             : 01:09:59.583
01:19:59.792                             : 01:19:59.792
01:29:59.583                             : 01:29:59.583
01:40:00.000                             : 01:40:00.000


Производство: Дания, Швеция, Нидерланды / Zentropa Entertainments, Danmarks Radio (DR), Det Danske Filminstitut
[b]Жанр:
Драма
Режиссер: Томас Винтерберг
Актеры: Ульрих Томсен, Фарес Фарес, Трине Дюрхольм, Хелена Рейнгорд Ньюманн, Джули Аньет Ванг, Ларс Ранте, Марта Софи Вольстром Хансен, Мэдс Ретер, Оле Дюпон, Маунус Миллан.
Описание:
В огромной вилле, расположенной в фешенебельном районе Копенгагена, Эрик и его жена Анна, воплощая давнюю мечту, создают коммуну близких по духу людей, готовых жить под одной крышей. Общие интересы, беседы, вечеринки полны эйфории и дарят ощущение подлинного единства. До тех пор, пока Эрик не приводит в дом свою новую возлюбленную…
Продолжительность: 01:51:42
Качество видео: HDRip
Перевод: Дублированный - (iTunes)
Вид субтитров: Вшитые отключаемые
Язык субтитров: Датский
Реклама: Без рекламы
Скриншоты:



Время раздачи: 24/7 (круглосуточно) (до появления первых 3-5 скачавших)
 
Не забывайте говорить Спасибо. Не уходите с раздачи!   
Торрент: Зарегистрирован [14 окт 2016, 01:05] Для скачивания .torrent
необходима регистрация
Или скачать с помощью
MediaGet
Статус:
Проверен
 
.torrent скачан: 0 раз
Хэш: a8cb247d13ebc02007b1510b5ad86a53b2e8d8c4
Размер: 1.77 ГБ (1 897 488 855 байт)
Стать Автором раздачи
 
 
Раздал: 100 ГБ
Скачал: 0 байт
Ратио: Seed.
Сообщения: 94013
Зарегистрирован: 09 апр 2015, 22:31


  • Похожие торренты
    Ответы
    Просмотры
    Последнее сообщение

Вернуться в Видео для мобильных устройств

Ресурс не предоставляет электронные версии произведений, а занимается лишь коллекционированием и каталогизацией ссылок, присылаемых и публикуемых на форуме нашими читателями. Если вы являетесь правообладателем какого-либо представленного материала и не желаете чтобы ссылка на него находилась в нашем каталоге, свяжитесь с нами и мы незамедлительно удалим её. Файлы для обмена на трекере предоставлены пользователями сайта, и администрация не несёт ответственности за их содержание. Просьба не заливать файлы, защищенные авторскими правами, а также файлы нелегального содержания!
cron