Крейсер / USS Indianapolis: Men of Courage (2016) WEB-DLRip [H.264] [MP4|1024x428]

 
 Статистика раздачи 
Размер: 2.19 ГБ   |  Зарегистрирован: 13 окт 2016, 21:51   |   .torrent скачан: 1 раз
Сидеров: 1  [ 0 байт/сек ]     Личеров: 0  [ 0 байт/сек ]  
  

Крейсер / USS Indianapolis: Men of Courage (2016) WEB-DLRip [H.264] [MP4|1024x428]

Сообщение explosiveone » 13 окт 2016, 21:51

Крейсер / USS Indianapolis: Men of Courage (2016) WEB-DLRip


Производство: США / Hannibal Pictures, USS Indianapolis Production
Жанр: Боевик, Военный

Режиссер: Марио Ван Пиблз
Актеры: Николас Кейдж, Том Сайзмор, Томас Джейн, Мэтт Лантер, Вероника Розати, Коуди Уокер, Брайан Прэсли, Эмили Теннант, Каллард Харрис, Эмили Мари Палмер

Описание:
Лето 1945 года. До конца Второй мировой оставались считанные недели… Крейсер ВМС США «Индианополис» доставил на американскую военную базу на острове Тиниан боеголовку атомной бомбы. На обратном рейде корабль был торпедирован японцами и пошел ко дну. «SOS!» капитана Маквэя не был услышан. И живые позавидовали мертвым: палящее солнце и зубы акул, жажда и галлюцинации, безумие и адские муки отчаяния…


Возраст: 18+ (зрителям, достигшим 18 лет. запрещено для детей)
Рейтинг MPAA: R (лицам до 17 лет обязательно присутствие взрослого)

Релиз от: NNMClub
Продолжительность: 02:04:34
Качество видео: WEB-DLRip
Перевод: Дублированный - (iTunes)
Вид субтитров: Отсутствуют
Реклама: Без рекламы

Видео: AVC/H.264 (High@L4.1), 1024x428 (2.40:1), 2258 Кбит/сек
Аудио #1: AAC, 2 канала, 128 Кбит/сек - русский
Аудио #2: AAC, 2 канала, 128 Кбит/сек - английский (оригинальный)
Код:
General
Complete name                            : D:\movie\OUTPUT\USS.Indianapolis_Men.of.Courage.2016.576p.WEB-DLRip.AAC.h264.NNMClub.mp4
Format                                   : MPEG-4
Format profile                           : Base Media / Version 2
Codec ID                                 : mp42 (mp42/isom)
File size                                : 2.19 GiB
Duration                                 : 2h 4mn
Overall bit rate mode                    : Variable
Overall bit rate                         : 2 520 Kbps
Movie name                               : USS Indianapolis: Men of Courage
Performer                                : Mario Van Peebles
Director                                 : Mario Van Peebles
Actor                                    : Nicolas Cage / Tom Sizemore / Matt Lanter / Thomas Jane / Emily Tennant / Callard Harris / Brian Presley / Johnny Wactor / Mandela Van Peebles / Patrice Cols / Joey Capone / Craig Tate / Shamar Sanders / Cody Walker / Yutaka Takeuchi
Screenplay by                            : Cameron Cannon / Richard Rionda Del Castro
Producer                                 : Richard Rionda Del Castro / Michael Mendelsohn
Production studio                        : Hannibal Pictures
Genre                                    : Action, War
ContentType                              : Short Film
Description                              : Action - The harrowing true story of the crew of the USS Indianapolis, who were stranded in the Philippine Sea for five days after delivering the atomic weapons that would eventually end WWII. As they awaited rescue, they endured extreme thirst, hunger, and relentless shark attacks.  -  Nicolas Cage, Matt Lanter, Thomas Jane
Recorded date                            : 2016-09-22
Encoded date                             : UTC 2016-10-13 15:20:00
Tagged date                              : UTC 2016-10-13 15:28:49
Cover                                    : Yes
Rating                                   : None
LongDescription                          : Action - The harrowing true story of the crew of the USS Indianapolis, who were stranded in the Philippine Sea for five days after delivering the atomic weapons that would eventually end WWII. As they awaited rescue, they endured extreme thirst, hunger, and relentless shark attacks.  -  Nicolas Cage, Matt Lanter, Thomas Jane

Video
ID                                       : 1
Format                                   : AVC
Format/Info                              : Advanced Video Codec
Format profile                           :
Format settings, CABAC                   : Yes
Format settings, ReFrames                : 5 frames
Codec ID                                 : avc1
Codec ID/Info                            : Advanced Video Coding
Duration                                 : 2h 4mn
Bit rate                                 : 2 258 Kbps
Width                                    : 1 024 pixels
Height                                   : 428 pixels
Display aspect ratio                     : 2.40:1
Frame rate mode                          : Constant
Frame rate                               : 25.000 fps
Color space                              : YUV
Chroma subsampling                       : 4:2:0
Bit depth                                : 8 bits
Scan type                                : Progressive
Bits/(Pixel*Frame)                       : 0.206
Stream size                              : 1.96 GiB (90%)
Writing library                          : x264 core 148 r2721+55 e19946b t_mod_Custom [8-bit@all X86_64]
Encoding settings                        : cabac=1 / ref=5 / deblock=1:-1:-1 / analyse=0x3:0x113 / me=umh / subme=9 / psy=1 / fade_compensate=0.00 / psy_rd=1.00:0.20 / mixed_ref=1 / me_range=32 / chroma_me=1 / trellis=2 / 8x8dct=1 / cqm=0 / deadzone=21,11 / fast_pskip=0 / chroma_qp_offset=-3 / threads=13 / lookahead_threads=2 / sliced_threads=0 / nr=0 / decimate=0 / interlaced=0 / bluray_compat=0 / constrained_intra=0 / fgo=0 / bframes=8 / b_pyramid=2 / b_adapt=2 / b_bias=0 / direct=1 / weightb=1 / open_gop=0 / weightp=2 / keyint=250 / keyint_min=25 / scenecut=40 / intra_refresh=0 / rc_lookahead=50 / rc=crf / mbtree=1 / crf=21.7000 / qcomp=0.65 / qpmin=0:0:0 / qpmax=69:69:69 / qpstep=4 / vbv_maxrate=10000 / vbv_bufsize=10000 / crf_max=0.0 / nal_hrd=none / filler=0 / ip_ratio=1.40 / aq=3:0.90 / aq-sensitivity=10.00 / aq-factor=1.00:1.00:1.00 / aq2=1:0.80 / aq2-sensitivity=15.00 / aq2-factor=1.00:1.00:1.00 / aq3=4:[0.50:0.50]:[0.50:0.50]:[0.50:0.50]:[0.50:0.50] / aq3-sensitivity=10.00 / aq3-factor=[1.00:1.00]:[1.00:1.00]:[1.00:1.00] / aq3-boundary=192:64:24
Encoded date                             : UTC 2016-10-13 15:20:00
Tagged date                              : UTC 2016-10-13 15:24:45
Color range                              : Limited
Color primaries                          : BT.709
Transfer characteristics                 : BT.709
Matrix coefficients                      : BT.709
Menus                                    : 4

Audio #1
ID                                       : 2
Format                                   : AAC
Format/Info                              : Advanced Audio Codec
Format profile                           : LC
Codec ID                                 : 40
Duration                                 : 2h 4mn
Source duration                          : 2h 4mn
Bit rate mode                            : Variable
Bit rate                                 : 128 Kbps
Maximum bit rate                         : 133 Kbps
Channel(s)                               : 2 channels
Channel positions                        : Front: L R
Sampling rate                            : 48.0 KHz
Frame rate                               : 46.875 fps (1024 spf)
Compression mode                         : Lossy
Stream size                              : 114 MiB (5%)
Source stream size                       : 114 MiB (5%)
Language                                 : Russian
Default                                  : Yes
Alternate group                          : 1
Encoded date                             : UTC 2016-10-13 15:20:00
Tagged date                              : UTC 2016-10-13 15:24:45

Audio #2
ID                                       : 3
Format                                   : AAC
Format/Info                              : Advanced Audio Codec
Format profile                           : LC
Codec ID                                 : 40
Duration                                 : 2h 4mn
Source duration                          : 2h 4mn
Bit rate mode                            : Variable
Bit rate                                 : 128 Kbps
Maximum bit rate                         : 133 Kbps
Channel(s)                               : 2 channels
Channel positions                        : Front: L R
Sampling rate                            : 48.0 KHz
Frame rate                               : 46.875 fps (1024 spf)
Compression mode                         : Lossy
Stream size                              : 114 MiB (5%)
Source stream size                       : 114 MiB (5%)
Language                                 : English
Default                                  : No
Alternate group                          : 1
Encoded date                             : UTC 2016-10-13 15:20:00
Tagged date                              : UTC 2016-10-13 15:24:45

Menu
ID                                       : 4
Codec ID                                 : text
Duration                                 : 2h 4mn
Language                                 : English
Encoded date                             : UTC 2016-10-13 15:24:45
Tagged date                              : UTC 2016-10-13 15:24:45
Menu For                                 : 1
00:00:00.000                             : Глава 1
00:06:47.880                             : Глава 2
00:15:29.120                             : Глава 3
00:23:52.280                             : Глава 4
00:28:41.840                             : Глава 5
00:34:03.840                             : Глава 6
00:41:05.760                             : Глава 7
00:51:06.920                             : Глава 8
00:57:08.280                             : Глава 9
01:03:45.160                             : Глава 10
01:10:45.520                             : Глава 11
01:18:32.200                             : Глава 12
01:25:52.000                             : Глава 13
01:32:05.600                             : Глава 14
01:38:51.760                             : Глава 15
01:49:20.879                             : Глава 16
01:53:10.120                             : Глава 17
Bit rate mode                            : CBR


Производство: США / Hannibal Pictures, USS Indianapolis Production
[b]Жанр:
Боевик, Военный

Режиссер: Марио Ван Пиблз
Актеры: Николас Кейдж, Том Сайзмор, Томас Джейн, Мэтт Лантер, Вероника Розати, Коуди Уокер, Брайан Прэсли, Эмили Теннант, Каллард Харрис, Эмили Мари Палмер

Описание:
Лето 1945 года. До конца Второй мировой оставались считанные недели… Крейсер ВМС США «Индианополис» доставил на американскую военную базу на острове Тиниан боеголовку атомной бомбы. На обратном рейде корабль был торпедирован японцами и пошел ко дну. «SOS!» капитана Маквэя не был услышан. И живые позавидовали мертвым: палящее солнце и зубы акул, жажда и галлюцинации, безумие и адские муки отчаяния…

Продолжительность: 02:04:34
Качество видео: WEB-DLRip
Перевод: Дублированный - (iTunes)
Вид субтитров: Отсутствуют
Реклама: Без рекламы
Скриншоты:



Время раздачи: 24/7 (круглосуточно) (до появления первых 3-5 скачавших)
 
Не забывайте говорить Спасибо. Не уходите с раздачи!   
Торрент: Зарегистрирован [13 окт 2016, 21:51] Для скачивания .torrent
необходима регистрация
Или скачать с помощью
MediaGet
Статус:
Проверен
 
.torrent скачан: 1 раз
Хэш: 88b9b64a414c596e6d19f23148982e8c4902c5f5
Размер: 2.19 ГБ (2 354 870 913 байт)
Стать Автором раздачи
 
 
Раздал: 100 ГБ
Скачал: 0 байт
Ратио: Seed.
Сообщения: 94013
Зарегистрирован: 09 апр 2015, 22:31


  • Похожие торренты
    Ответы
    Просмотры
    Последнее сообщение

Вернуться в Видео для мобильных устройств

Ресурс не предоставляет электронные версии произведений, а занимается лишь коллекционированием и каталогизацией ссылок, присылаемых и публикуемых на форуме нашими читателями. Если вы являетесь правообладателем какого-либо представленного материала и не желаете чтобы ссылка на него находилась в нашем каталоге, свяжитесь с нами и мы незамедлительно удалим её. Файлы для обмена на трекере предоставлены пользователями сайта, и администрация не несёт ответственности за их содержание. Просьба не заливать файлы, защищенные авторскими правами, а также файлы нелегального содержания!
cron