Время / In Time (2011) WEB-DLRip [H.264] [MP4|1024x576]

 
 Статистика раздачи 
Размер: 1.88 ГБ   |  Зарегистрирован: 13 окт 2016, 11:46   |   .torrent скачан: 1 раз
Сидеров: 1  [ 0 байт/сек ]     Личеров: 0  [ 0 байт/сек ]  
  

Время / In Time (2011) WEB-DLRip [H.264] [MP4|1024x576]

Сообщение explosiveone » 13 окт 2016, 11:46

Время / In Time (2011) WEB-DLRip

«Живи вечно или умри, пытаясь»

Производство: США / Regency Enterprises, New Regency Pictures, Strike Entertainment
Жанр: Фантастика, Триллер, Драма, Мелодрама, Криминал

Режиссер: Эндрю Никкол
Актеры: Джастин Тимберлэйк, Аманда Сайфред, Алекс Петтифер, Киллиан Мёрфи, Оливия Уайлд, Шайло Оствальд, Джонни Галэки, Колин МакГерк, Уилл Харрис, Майкл Уильям Фриман

Описание:
Добро пожаловать в мир, где время стало единственной и самой твердой валютой, где люди генетически запрограммированы так, что в 25 лет перестают стареть. Правда, последующие годы стоят денег. И вот богатые становятся практически бессмертными, а бедные, как всегда, обречены сражаться за жизнь.
Уилл, бунтарь из гетто, несправедливо обвинен в убийстве с целью грабежа времени и вынужден, захватив заложницу, пуститься в бега. Так, ежеминутно рискуя жизнью, эти двое становятся грозным оружием в борьбе с системой. Но вот вопрос: кто кого? А может быть, в дело вмешается третья сила?..


Возраст: 12+ (зрителям, достигшим 12 лет)
Рейтинг MPAA: PG-13 (детям до 13 лет просмотр нежелателен)

Продолжительность: 01:49:16
Качество видео: WEB-DLRip
Перевод: Дублированный
Вид субтитров: Вшитые отключаемые
Язык субтитров: Русский, Английский
Реклама: Без рекламы

Видео: AVC/H.264 (Main@L3.0), 1024x576 (16:9), 2200 Кбит/сек
Аудио #1: AAC, 2 канала, 128 Кбит/сек - русский
Аудио #2: AAC, 2 канала, 128 Кбит/сек - английский
Код:
General
Complete name                            : C:\DGI\In Time.2011.576p.WEB-DLRip.AAC.h264.NNMclub.mp4
Format                                   : MPEG-4
Format profile                           : Base Media / Version 2
Codec ID                                 : mp42 (mp42/isom)
File size                                : 1.88 GiB
Duration                                 : 1h 49mn
Overall bit rate mode                    : Variable
Overall bit rate                         : 2 461 Kbps
Movie name                               : In Time
Performer                                : Andrew Niccol
Director                                 : Andrew Niccol
Actor                                    : Justin Timberlake / Amanda Seyfried
Genre                                    : Sci-Fi & Fantasy
ContentType                              : Short Film
Description                              : Every second counts in this sexy, stylish action-thriller starring Justin Timberlake and Amanda Seyfried. In a future where time is literally money and aging stops at 25, the only way to stay alive is to earn, borrow, steal or inherit more time. But when a poor, working-class man (Timberlake) is falsely accused of murder, he teams up with a beautiful heiress (Seyfried) and must figure out a way to bring down the corrupt system before their dwindling life clocks run out!
Recorded date                            : 2011-10-28
Encoded date                             : UTC 2016-10-13 07:13:37
Tagged date                              : UTC 2016-10-13 07:20:22
Copyright                                : © 2011 Twentieth Century Fox Film Corporation
Cover                                    : Yes
Rating                                   : None
LongDescription                          : Every second counts in this sexy, stylish action-thriller starring Justin Timberlake and Amanda Seyfried. In a future where time is literally money and aging stops at 25, the only way to stay alive is to earn, borrow, steal or inherit more time. But when a poor, working-class man (Timberlake) is falsely accused of murder, he teams up with a beautiful heiress (Seyfried) and must figure out a way to bring down the corrupt system before their dwindling life clocks run out!
AppleStoreCountry                        : United States
AppleStoreCatalogID                      : 476869088
ContentRating                            : mpaa|PG-13|300|

Video
ID                                       : 1
Format                                   : AVC
Format/Info                              : Advanced Video Codec
Format profile                           : Main@L3
Format settings, CABAC                   : No
Format settings, ReFrames                : 3 frames
Codec ID                                 : avc1
Codec ID/Info                            : Advanced Video Coding
Duration                                 : 1h 49mn
Bit rate                                 : 2 200 Kbps
Width                                    : 1 024 pixels
Height                                   : 576 pixels
Display aspect ratio                     : 16:9
Frame rate mode                          : Variable
Frame rate                               : 23.976 (24000/1001) fps
Minimum frame rate                       : 23.810 fps
Maximum frame rate                       : 24.390 fps
Color space                              : YUV
Chroma subsampling                       : 4:2:0
Bit depth                                : 8 bits
Scan type                                : Progressive
Bits/(Pixel*Frame)                       : 0.156
Stream size                              : 1.68 GiB (89%)
Writing library                          : x264 core 148 r2721+55 e19946b t_mod_Custom [8-bit@all X86_64]
Encoding settings                        : cabac=0 / ref=3 / deblock=1:-1:-1 / analyse=0x1:0x111 / me=umh / subme=7 / psy=1 / fade_compensate=0.00 / psy_rd=1.00:0.20 / mixed_ref=1 / me_range=32 / chroma_me=1 / trellis=2 / 8x8dct=0 / cqm=0 / deadzone=21,11 / fast_pskip=0 / chroma_qp_offset=-3 / threads=12 / lookahead_threads=2 / sliced_threads=0 / nr=0 / decimate=0 / interlaced=0 / bluray_compat=0 / constrained_intra=0 / fgo=0 / bframes=2 / b_pyramid=0 / b_adapt=2 / b_bias=0 / direct=3 / weightb=1 / open_gop=0 / weightp=2 / keyint=240 / keyint_min=23 / scenecut=40 / intra_refresh=0 / rc_lookahead=50 / rc=2pass / mbtree=1 / bitrate=2200 / ratetol=1.0 / qcomp=0.70 / qpmin=0:0:0 / qpmax=69:69:69 / qpstep=4 / cplxblur=20.0 / qblur=0.5 / vbv_maxrate=10000 / vbv_bufsize=10000 / nal_hrd=none / filler=0 / ip_ratio=1.40 / aq=3:0.90 / aq-sensitivity=10.00 / aq-factor=1.00:1.00:1.00 / aq2=1:0.90 / aq2-sensitivity=15.00 / aq2-factor=1.00:1.00:1.00 / aq3=3:[0.50:0.50]:[0.50:0.50]:[0.50:0.50]:[0.50:0.50] / aq3-sensitivity=10.00 / aq3-factor=[1.00:1.00]:[1.00:1.00]:[1.00:1.00] / aq3-boundary=192:64:24
Encoded date                             : UTC 2016-10-13 07:13:37
Tagged date                              : UTC 2016-10-13 07:19:01
Color range                              : Limited
Matrix coefficients                      : BT.709

Audio #1
ID                                       : 2
Format                                   : AAC
Format/Info                              : Advanced Audio Codec
Format profile                           : LC
Codec ID                                 : 40
Duration                                 : 1h 49mn
Source duration                          : 1h 49mn
Bit rate mode                            : Variable
Bit rate                                 : 128 Kbps
Maximum bit rate                         : 131 Kbps
Channel(s)                               : 2 channels
Channel positions                        : Front: L R
Sampling rate                            : 48.0 KHz
Frame rate                               : 46.875 fps (1024 spf)
Compression mode                         : Lossy
Stream size                              : 100.0 MiB (5%)
Source stream size                       : 100.0 MiB (5%)
Language                                 : Russian
Default                                  : Yes
Alternate group                          : 1
Encoded date                             : UTC 2016-10-13 07:13:37
Tagged date                              : UTC 2016-10-13 07:19:01

Audio #2
ID                                       : 3
Format                                   : AAC
Format/Info                              : Advanced Audio Codec
Format profile                           : LC
Codec ID                                 : 40
Duration                                 : 1h 49mn
Source duration                          : 1h 49mn
Bit rate mode                            : Variable
Bit rate                                 : 128 Kbps
Maximum bit rate                         : 131 Kbps
Channel(s)                               : 2 channels
Channel positions                        : Front: L R
Sampling rate                            : 48.0 KHz
Frame rate                               : 46.875 fps (1024 spf)
Compression mode                         : Lossy
Stream size                              : 100.0 MiB (5%)
Source stream size                       : 100.0 MiB (5%)
Language                                 : English
Default                                  : No
Alternate group                          : 1
Encoded date                             : UTC 2016-10-13 07:13:37
Tagged date                              : UTC 2016-10-13 07:19:01

Text #1
ID                                       : 4
Format                                   : Timed Text
Muxing mode                              : sbtl
Codec ID                                 : tx3g
Duration                                 : 1h 28mn
Bit rate mode                            : Variable
Bit rate                                 : 1 bps
Stream size                              : 843 Bytes (0%)
Language                                 : Russian
Default                                  : Yes
Forced                                   : No
Alternate group                          : 2
Encoded date                             : UTC 2016-10-13 07:13:37
Tagged date                              : UTC 2016-10-13 07:19:01

Text #2
ID                                       : 5
Format                                   : Timed Text
Muxing mode                              : sbtl
Codec ID                                 : tx3g
Duration                                 : 1h 49mn
Bit rate mode                            : Variable
Bit rate                                 : 64 bps
Stream size                              : 51.2 KiB (0%)
Language                                 : Russian
Default                                  : No
Forced                                   : No
Alternate group                          : 2
Encoded date                             : UTC 2016-10-13 07:13:37
Tagged date                              : UTC 2016-10-13 07:19:01

Text #3
ID                                       : 6
Format                                   : Timed Text
Muxing mode                              : sbtl
Codec ID                                 : tx3g
Duration                                 : 1h 42mn
Bit rate mode                            : Variable
Bit rate                                 : 47 bps
Stream size                              : 35.6 KiB (0%)
Language                                 : English
Default                                  : No
Forced                                   : No
Alternate group                          : 2
Encoded date                             : UTC 2016-10-13 07:13:37
Tagged date                              : UTC 2016-10-13 07:19:01

Text #4
ID                                       : 7
Format                                   : Timed Text
Muxing mode                              : sbtl
Codec ID                                 : tx3g
Duration                                 : 1h 42mn
Bit rate mode                            : Variable
Bit rate                                 : 50 bps
Stream size                              : 37.8 KiB (0%)
Language                                 : English
Default                                  : No
Forced                                   : No
Alternate group                          : 2
Encoded date                             : UTC 2016-10-13 07:13:37
Tagged date                              : UTC 2016-10-13 07:19:01


Производство: США / Regency Enterprises, New Regency Pictures, Strike Entertainment
[b]Жанр:
Фантастика, Триллер, Драма, Мелодрама, Криминал
Режиссер: Эндрю Никкол
Актеры: Джастин Тимберлэйк, Аманда Сайфред, Алекс Петтифер, Киллиан Мёрфи, Оливия Уайлд, Шайло Оствальд, Джонни Галэки, Колин МакГерк, Уилл Харрис, Майкл Уильям Фриман
Описание:
Добро пожаловать в мир, где время стало единственной и самой твердой валютой, где люди генетически запрограммированы так, что в 25 лет перестают стареть. Правда, последующие годы стоят денег. И вот богатые становятся практически бессмертными, а бедные, как всегда, обречены сражаться за жизнь.
Уилл, бунтарь из гетто, несправедливо обвинен в убийстве с целью грабежа времени и вынужден, захватив заложницу, пуститься в бега. Так, ежеминутно рискуя жизнью, эти двое становятся грозным оружием в борьбе с системой. Но вот вопрос: кто кого? А может быть, в дело вмешается третья сила?..

Продолжительность: 01:49:16
Качество видео: WEB-DLRip
Перевод: Дублированный
Вид субтитров: Вшитые отключаемые
Язык субтитров: Русский, Английский
Реклама: Без рекламы
Скриншоты:



Время раздачи: 24/7 (круглосуточно) (до появления первых 3-5 скачавших)
 
Не забывайте говорить Спасибо. Не уходите с раздачи!   
Торрент: Зарегистрирован [13 окт 2016, 11:46] Для скачивания .torrent
необходима регистрация
Или скачать с помощью
MediaGet
Статус:
Проверен
 
.torrent скачан: 1 раз
Хэш: de8f8ff0e5cc3ce221847c080eadebb50d5a6f6a
Размер: 1.88 ГБ (2 021 060 509 байт)
Стать Автором раздачи
 
 
Раздал: 100 ГБ
Скачал: 0 байт
Ратио: Seed.
Сообщения: 94020
Зарегистрирован: 09 апр 2015, 22:31


  • Похожие торренты
    Ответы
    Просмотры
    Последнее сообщение

Вернуться в Видео для мобильных устройств

Ресурс не предоставляет электронные версии произведений, а занимается лишь коллекционированием и каталогизацией ссылок, присылаемых и публикуемых на форуме нашими читателями. Если вы являетесь правообладателем какого-либо представленного материала и не желаете чтобы ссылка на него находилась в нашем каталоге, свяжитесь с нами и мы незамедлительно удалим её. Файлы для обмена на трекере предоставлены пользователями сайта, и администрация не несёт ответственности за их содержание. Просьба не заливать файлы, защищенные авторскими правами, а также файлы нелегального содержания!
cron