Русское чудо (1994) DVDRip

 
 Статистика раздачи 
Размер: 747.05 МБ   |  Зарегистрирован: 10 окт 2016, 23:53   |   .torrent скачан: 6 раз
Сидеров: 5  [ 0 байт/сек ]     Личеров: 1  [ 0 байт/сек ]  
  

Русское чудо (1994) DVDRip

Сообщение Lester » 10 окт 2016, 23:53



Информация о фильме
Название: Русское чудо
Год выхода: 1994
Жанр: Комедия
Режиссёр: Михаил Кокшенов
В ролях: Михаил Кокшенов, Семен Фарада, Наталья Крачковская, Леонид Куравлёв, Рудольф Рудин, Татьяна Кравченко, Вадим Захарченко, Евгений Марченко, Валерий Носик, Владимир Кондратьев

О фильме: Предприимчивый Иван решает организовать гастроли в Америке знаменитого русского экстрасенса Юрия Кошмаровского и подзаработать немного «зеленых». Однако, перед самым вылетом обнаруживается, что маэстро попал в больницу. Ну не отменять же выступления из-за такого пустяка! К счастью, в аэропорт Ивана провожала тетя Катя с мужем Петей, который, как оказалось, почти двойник Кошмаровского...



Страна: Россия
Студия: Рубиз, Саби
Продолжительность: 01:15:49
Перевод: Не требуется (оригинальный)

Файл
Формат: avi
Качество: DVDRip (DVD5)
Видео: XviD, 624х480, 25fps, 1240kbps
Аудио: MPEG Layer 3, 2ch, 48000Hz, 128kbps



General
Complete name : Russkoe.Chudo.1994.O.DVDRip.700.CurHaJI.avi
Format : AVI
Format/Info : Audio Video Interleave
File size : 747 MiB
Duration : 1h 15mn
Overall bit rate : 1 377 Kbps
Movie name : Russkoe.Chudo.1994.O.DVDRip.700.CurHaJI
Writing application : VirtualDubMod 1.5.10.3 | www.virtualdub-fr.org || (build 2550/release)
Writing library : VirtualDub build 35491/release

Video
ID : 0
Format : MPEG-4 Visual
Format profile : Advanced Simple@L5
Format settings, BVOP : 2
Format settings, QPel : No
Format settings, GMC : No warppoints
Format settings, Matrix : Custom
Codec ID : XVID
Codec ID/Hint : XviD
Duration : 1h 15mn
Bit rate : 1 240 Kbps
Width : 624 pixels
Height : 480 pixels
Display aspect ratio : 4:3
Frame rate : 25.000 fps
Color space : YUV
Chroma subsampling : 4:2:0
Bit depth : 8 bits
Scan type : Progressive
Compression mode : Lossy
Bits/(Pixel*Frame) : 0.166
Stream size : 672 MiB (90%)
Writing library : XviD 73

Audio
ID : 1
Format : MPEG Audio
Format version : Version 1
Format profile : Layer 3
Codec ID : 55
Codec ID/Hint : MP3
Duration : 1h 15mn
Bit rate mode : Constant
Bit rate : 128 Kbps
Channel(s) : 2 channels
Sampling rate : 48.0 KHz
Compression mode : Lossy
Stream size : 69.4 MiB (9%)
Alignment : Aligned on interleaves
Interleave, duration : 40 ms (1.00 video frame)
Interleave, preload duration : 504 ms
Writing library : LAME3.99r
Encoding settings : -m s -V 4 -q 2 -lowpass 17 -b 128


Релиз от:
 
Не забывайте говорить Спасибо. Не уходите с раздачи!   
Торрент: Зарегистрирован [10 окт 2016, 23:53] Для скачивания .torrent
необходима регистрация
Или скачать с помощью
MediaGet
Статус:
Проверен
 
.torrent скачан: 6 раз
Хэш: 3c97000448fdd924b067ea10c8ac1ca299ec2d7a
Размер: 747.05 МБ (783 343 038 байт)
Стать Автором раздачи
 
 
Раздал: 100 ГБ
Скачал: 0 байт
Ратио: Seed.
Сообщения: 104252
Зарегистрирован: 09 апр 2015, 23:00


Re: Русское чудо (1994) DVDRip

Сообщение vasjek » 19 май 2017, 19:17

сайту большое спасибо
 
Раздал: 330.63 ГБ
Скачал: 56.97 ГБ
Ратио: 5.804
Сообщения: 41
Зарегистрирован: 23 май 2016, 12:50

Re: Русское чудо (1994) DVDRip

Сообщение i926 » 19 май 2017, 21:52

Да завсегда на здоровье ;)
Аватара пользователя
Главный редактор
Главный редактор
 
Раздал: 15.43 ТБ
Скачал: 13.78 ТБ
Ратио: 1.120
Сообщения: 64966
Зарегистрирован: 01 мар 2011, 23:07


  • Похожие торренты
    Ответы
    Просмотры
    Последнее сообщение

Вернуться в Отечественные фильмы 1992-2000 года

Ресурс не предоставляет электронные версии произведений, а занимается лишь коллекционированием и каталогизацией ссылок, присылаемых и публикуемых на форуме нашими читателями. Если вы являетесь правообладателем какого-либо представленного материала и не желаете чтобы ссылка на него находилась в нашем каталоге, свяжитесь с нами и мы незамедлительно удалим её. Файлы для обмена на трекере предоставлены пользователями сайта, и администрация не несёт ответственности за их содержание. Просьба не заливать файлы, защищенные авторскими правами, а также файлы нелегального содержания!
cron