Lego Звездные войны: Империя наносит удар / Lego Star Wars: The Empire Strikes Out (2012) HDTVRip [H.264] [MP4|1024x576]

 
 Статистика раздачи 
Размер: 342.47 МБ   |  Зарегистрирован: 10 окт 2016, 20:55   |   .torrent скачан: 0 раз
Сидеров: 1  [ 0 байт/сек ]     Личеров: 0  [ 0 байт/сек ]  
  

Lego Звездные войны: Империя наносит удар / Lego Star Wars: The Empire Strikes Out (2012) HDTVRip [H.264] [MP4|1024x576]

Сообщение explosiveone » 10 окт 2016, 20:55

Lego Звездные войны: Империя наносит удар / Lego Star Wars: The Empire Strikes Out (2012) HDTVRip



Производство: США / CGCG, Lucasfilm Television, Threshold Animation Studios
Жанр: Мультфильм, Короткометражка, Фантастика

Режиссер: Гай Василович
Актеры: Энтони Дэниелс, Кеннет Колли, Брайан Блессид, Джулиан Гловер, Ллойд Флойд, Мэтт Слоун, Ахмед Бест, Лиза Фьюсон, Джон Армстронг, Эндрю Сиком

Описание:
Ваши любимые герои вновь спасают Галактику. Не успевают члены Альянса Повстанцев — храбрый Люк Скайуокер, самоуверенный Хан Соло и стойкая Принцесса Лея — отпраздновать свою победу над Империей, как возникает новая угроза. Действовать нужно незамедлительно!
Но неожиданно Люк обнаруживает, что слава «джедая, который уничтожил Звезду Смерти» -палка о двух концах, ведь его повсюду преследуют толпы сумасшедших фанатов. Ничего себе секретная миссия!Тем временем Дарт Вэйдер и Дарт Мол устраивают грандиозное «соперничество Ситхов», пытаясь заслужить одобрение Императора…


Возраст: 6+ (зрителям, достигшим 6 лет)
Рейтинг MPAA: G (нет возрастных ограничений)

Продолжительность: 00:21:11
Качество видео: HDTVRip
Перевод: Дублированный
Вид субтитров: Отсутствуют
Реклама: Без рекламы

Видео: AVC/H.264 (Main@L3.0), 1024x576 (16:9), 2000 Кбит/сек
Аудио #1: AAC, 2 канал, 128 Кбит/сек - русский
Аудио #2: AAC, 2 канал, 128 Кбит/сек - английский
Код:
General
Complete name                            : D:\movie\LEGO STAR WARS_The.Empire.strikes.out.2012. 576p.HDTVRip.AAC.H264.NNMclub.mp4
Format                                   : MPEG-4
Format profile                           : Base Media / Version 2
Codec ID                                 : mp42 (mp42/isom)
File size                                : 342 MiB
Duration                                 : 21mn 10s
Overall bit rate mode                    : Variable
Overall bit rate                         : 2 260 Kbps
Movie name                               : Lego Star Wars: The Empire Strikes Out
Performer                                : Guy Vasilovich
Director                                 : Guy Vasilovich
Actor                                    : Anthony Daniels / Lisa Fuson / Matt Sloan / Samuel Witwer / Tom Kane / Brian Blessed / Julian Glover / Ahmed Best / Andrew Secombe / Llyod Floyd / Kenneth Colley / John Armstrong
Genre                                    : Science Fiction, Animation, Action, Family, Comedy
ContentType                              : Short Film
Description                              : A new Imperial threat has been detected and the good guys have to act fast. But Jedi-in-training Luke discovers that instant fame as a “Death-Star-Blower-Upper” can be a double-edged lightsaber, as his secret mission to Naboo is thwarted by those most unstoppable of foes -- crazed fans! (It’s hard being the galaxy’s New Hope.) Meanwhile, Darth Vader sees his day go from bad to worse when his relationship with the Emperor is imperiled by the unexpected arrival of Darth Maul. Luke and Vader’s quests to prove themselves lead them on a collision course with each other (literally) and their destiny.
Recorded date                            : 2012-09-24
Encoded date                             : UTC 2016-10-10 15:41:08
Tagged date                              : UTC 2016-10-10 15:42:02
Cover                                    : Yes
Rating                                   : None
LongDescription                          : A new Imperial threat has been detected and the good guys have to act fast. But Jedi-in-training Luke discovers that instant fame as a “Death-Star-Blower-Upper” can be a double-edged lightsaber, as his secret mission to Naboo is thwarted by those most unstoppable of foes -- crazed fans! (It’s hard being the galaxy’s New Hope.) Meanwhile, Darth Vader sees his day go from bad to worse when his relationship with the Emperor is imperiled by the unexpected arrival of Darth Maul. Luke and Vader’s quests to prove themselves lead them on a collision course with each other (literally) and their destiny.
ContentRating                            : mpaa|G|100|

Video
ID                                       : 1
Format                                   : AVC
Format/Info                              : Advanced Video Codec
Format profile                           : Main@L3
Format settings, CABAC                   : No
Format settings, ReFrames                : 3 frames
Codec ID                                 : avc1
Codec ID/Info                            : Advanced Video Coding
Duration                                 : 21mn 8s
Bit rate                                 : 2 000 Kbps
Width                                    : 1 024 pixels
Height                                   : 576 pixels
Display aspect ratio                     : 16:9
Frame rate mode                          : Constant
Frame rate                               : 25.000 fps
Color space                              : YUV
Chroma subsampling                       : 4:2:0
Bit depth                                : 8 bits
Scan type                                : Progressive
Bits/(Pixel*Frame)                       : 0.136
Stream size                              : 302 MiB (88%)
Writing library                          : x264 core 148 r2721+55 e19946b t_mod_Custom [8-bit@all X86_64]
Encoding settings                        : cabac=0 / ref=3 / deblock=1:0:0 / analyse=0x1:0x131 / me=umh / subme=7 / psy=1 / fade_compensate=0.00 / psy_rd=0.60:0.15 / mixed_ref=1 / me_range=32 / chroma_me=1 / trellis=2 / 8x8dct=0 / cqm=0 / deadzone=21,11 / fast_pskip=0 / chroma_qp_offset=-3 / threads=18 / lookahead_threads=3 / sliced_threads=0 / nr=0 / decimate=0 / interlaced=0 / bluray_compat=0 / constrained_intra=0 / fgo=0 / bframes=3 / b_pyramid=0 / b_adapt=2 / b_bias=0 / direct=3 / weightb=1 / open_gop=0 / weightp=2 / keyint=250 / keyint_min=25 / scenecut=35 / intra_refresh=0 / rc_lookahead=50 / rc=2pass / mbtree=1 / bitrate=2000 / ratetol=1.0 / qcomp=0.60 / qpmin=0:0:0 / qpmax=69:69:69 / qpstep=4 / cplxblur=20.0 / qblur=0.5 / vbv_maxrate=10000 / vbv_bufsize=10000 / nal_hrd=none / filler=0 / ip_ratio=1.40 / aq=3:0.60 / aq-sensitivity=10.00 / aq-factor=1.00:1.00:1.00 / aq2=1:0.60 / aq2-sensitivity=13.00 / aq2-factor=1.00:1.00:1.00 / aq3=4:[0.50:0.50]:[0.50:0.50]:[0.50:0.50]:[0.50:0.50] / aq3-sensitivity=10.00 / aq3-factor=[1.00:1.00]:[1.00:1.00]:[1.00:1.00] / aq3-boundary=192:64:24
Encoded date                             : UTC 2016-10-10 15:41:08
Tagged date                              : UTC 2016-10-10 15:41:56
Color range                              : Limited
Matrix coefficients                      : BT.709

Audio #1
ID                                       : 2
Format                                   : AAC
Format/Info                              : Advanced Audio Codec
Format profile                           : LC
Codec ID                                 : 40
Duration                                 : 21mn 10s
Source duration                          : 21mn 10s
Bit rate mode                            : Variable
Bit rate                                 : 128 Kbps
Maximum bit rate                         : 131 Kbps
Channel(s)                               : 2 channels
Channel positions                        : Front: L R
Sampling rate                            : 48.0 KHz
Frame rate                               : 46.875 fps (1024 spf)
Compression mode                         : Lossy
Stream size                              : 19.4 MiB (6%)
Source stream size                       : 19.4 MiB (6%)
Language                                 : Russian
Default                                  : Yes
Alternate group                          : 1
Encoded date                             : UTC 2016-10-10 15:41:09
Tagged date                              : UTC 2016-10-10 15:41:56

Audio #2
ID                                       : 3
Format                                   : AAC
Format/Info                              : Advanced Audio Codec
Format profile                           : LC
Codec ID                                 : 40
Duration                                 : 21mn 8s
Source duration                          : 21mn 8s
Bit rate mode                            : Variable
Bit rate                                 : 128 Kbps
Maximum bit rate                         : 131 Kbps
Channel(s)                               : 2 channels
Channel positions                        : Front: L R
Sampling rate                            : 48.0 KHz
Frame rate                               : 46.875 fps (1024 spf)
Compression mode                         : Lossy
Stream size                              : 19.4 MiB (6%)
Source stream size                       : 19.4 MiB (6%)
Language                                 : English
Default                                  : No
Alternate group                          : 1
Encoded date                             : UTC 2016-10-10 15:41:09
Tagged date                              : UTC 2016-10-10 15:41:56


Скриншоты:



Время раздачи: 24/7 (круглосуточно) (до появления первых 3-5 скачавших)
 
Не забывайте говорить Спасибо. Не уходите с раздачи!   
Торрент: Зарегистрирован [10 окт 2016, 20:55] Для скачивания .torrent
необходима регистрация
Или скачать с помощью
MediaGet
Статус:
Проверен
 
.torrent скачан: 0 раз
Хэш: d55b3c266c4b93fed8161fb6f41b3f9f4324b31a
Размер: 342.47 МБ (359 105 076 байт)
Стать Автором раздачи
 
 
Раздал: 100 ГБ
Скачал: 0 байт
Ратио: Seed.
Сообщения: 94048
Зарегистрирован: 09 апр 2015, 22:31


  • Похожие торренты
    Ответы
    Просмотры
    Последнее сообщение

Вернуться в Видео для мобильных устройств

Ресурс не предоставляет электронные версии произведений, а занимается лишь коллекционированием и каталогизацией ссылок, присылаемых и публикуемых на форуме нашими читателями. Если вы являетесь правообладателем какого-либо представленного материала и не желаете чтобы ссылка на него находилась в нашем каталоге, свяжитесь с нами и мы незамедлительно удалим её. Файлы для обмена на трекере предоставлены пользователями сайта, и администрация не несёт ответственности за их содержание. Просьба не заливать файлы, защищенные авторскими правами, а также файлы нелегального содержания!
cron