BBC. Horizon: Почему мы толстеем / Why Are We Getting So Fat? (2016) HDTVRip

 
 Статистика раздачи 
Размер: 676.79 МБ   |  Зарегистрирован: 10 окт 2016, 19:49   |   .torrent скачан: 0 раз
Сидеров: 1  [ 0 байт/сек ]     Личеров: 0  [ 0 байт/сек ]  
  

BBC. Horizon: Почему мы толстеем / Why Are We Getting So Fat? (2016) HDTVRip

Сообщение explosiveone » 10 окт 2016, 19:49

BBC. Horizon: Почему мы толстеем / Why Are We Getting So Fat? (2016) HDTVRip

Телекомпания: Великобритания, BBC Science Production London
Жанр: Документальный, научно-популярный

Режиссер: Милла Харрисон-Хенсли
Ведущий: генетик, доктор Джайлз Йео

Описание:
Мы живем в разгар эпидемии ожирения. Например, более 60% взрослых людей Великобритании классифицируются как страдающие им. И эта цифра растет. Действительно ли эта проблема решается диетой и физическими нагрузками? Ученый-генетик из Кембриджа встретится с самыми большими людьми Британии, чтобы проверить это. От редких генетических мутаций до злоупотребления высококалорийными продуктами - мы выясним, какие факторы играют решающую роль в проблеме увеличения веса.

Продолжительность: 00:49:45
Качество видео: HDTVRip
Перевод: Двуголосый закадровый, профессиональный, (Видеофильм ТВ)

Видео: Xvid, 720x400, ~1699 kbps
Аудио: AC3, 2 ch, 192 kbps, CBR
Код: Выделить всё
General
Полное имя                               : F:\КИНО\Почему мы толстеем.avi
Формат                                   : AVI
Формат/Информация                        : Audio Video Interleave
Размер файла                             : 677 MiB
Продолжительность                        : 49 min 45 s
Общий поток                              : 1 902 kb/s
Программа кодирования                    : VirtualDubMod 1.5.10.3 | [url=http://www.virtualdub-fr.org]www.virtualdub-fr.org[/url] || (build 2550/release)
Библиотека кодирования                   : VirtualDubMod build 2550/release

Video
Идентификатор                            : 0
Формат                                   : MPEG-4 Visual
Профиль формата                          : Advanced Simple@L5
Параметр BVOP формата                    : 1
Параметр QPel формата                    : No
Параметр GMC формата                     : No warppoints
Параметр матрицы формата                 : Default (MPEG)
Идентификатор кодека                     : XVID
Идентификатор кодека/Подсказка           : XviD
Продолжительность                        : 49 min 45 s
Битрейт                                  : 1 700 kb/s
Ширина                                   : 720 pixels
Высота                                   : 400 pixels
Соотношение сторон                       : 16:9
Частота кадров                           : 25.000 FPS
Цветовое пространство                    : YUV
Субдискретизация насыщенности            : 4:2:0
Битовая глубина                          : 8 bits
Тип развёртки                            : Progressive
Метод сжатия                             : Lossy
Бит/(Пиксели*Кадры)                      : 0.236
Размер потока                            : 605 MiB (89%)
Библиотека кодирования                   : XviD 1.2.1 (UTC 2008-12-04)

Audio
Идентификатор                            : 1
Формат                                   : AC-3
Формат/Информация                        : Audio Coding 3
Расширение режима                        : CM (complete main)
Параметр Endianness формата              : Big
Идентификатор кодека                     : 2000
Продолжительность                        : 49 min 45 s
Вид битрейта                             : Constant
Битрейт                                  : 192 kb/s
Каналы                                   : 2 channels
Расположение каналов                     : Front: L R
Частота                                  : 48.0 kHz
Частота кадров                           : 31.250 FPS (1536 spf)
Метод сжатия                             : Lossy
Размер потока                            : 68.3 MiB (10%)
Выравнивание                             : Split accross interleaves
Продолжительность промежутка             : 40  ms (1.00 video frame)
Время предзагрузки промежутка            : 500  ms

Скриншоты:




Время раздачи: с 18:00 до 23:00 (до появления первых 3-5 скачавших)
 
Не забывайте говорить Спасибо. Не уходите с раздачи!   
Торрент: Зарегистрирован [10 окт 2016, 19:49] Для скачивания .torrent
необходима регистрация
Или скачать с помощью
MediaGet
Статус:
Проверен
 
.torrent скачан: 0 раз
Хэш: 5260b01f856bb6e94040254812e3e986f908f01c
Размер: 676.79 МБ (709 662 720 байт)
Стать Автором раздачи
 
 
Раздал: 100 ГБ
Скачал: 0 байт
Ратио: Seed.
Сообщения: 94121
Зарегистрирован: 09 апр 2015, 22:31


  • Похожие торренты
    Ответы
    Просмотры
    Последнее сообщение

Вернуться в BBC

Ресурс не предоставляет электронные версии произведений, а занимается лишь коллекционированием и каталогизацией ссылок, присылаемых и публикуемых на форуме нашими читателями. Если вы являетесь правообладателем какого-либо представленного материала и не желаете чтобы ссылка на него находилась в нашем каталоге, свяжитесь с нами и мы незамедлительно удалим её. Файлы для обмена на трекере предоставлены пользователями сайта, и администрация не несёт ответственности за их содержание. Просьба не заливать файлы, защищенные авторскими правами, а также файлы нелегального содержания!
cron