Баджирао и Мастани / Bajirao Mastani (2015) BDRip 1080p

 
 Статистика раздачи 
Размер: 3.24 ГБ   |  Зарегистрирован: 10 окт 2016, 14:30   |   .torrent скачан: 0 раз
Сидеров: 1  [ 0 байт/сек ]     Личеров: 0  [ 0 байт/сек ]  
  

Баджирао и Мастани / Bajirao Mastani (2015) BDRip 1080p

Сообщение explosiveone » 10 окт 2016, 14:30

Баджирао и Мастани / Bajirao Mastani (2015) BDRip 1080p[/align]


Производство: Индия
Жанр: Музыка, клипы
Год выхода DVD/Blu-ray: 2016
Режиссер: Санджай Лила Бхансали (Sanjay Leela Bhansali)
Актеры: Приянка Чопра, Дипика Падукон, Ирфан Кхан, Ранвир Сингх и др.

Описание:
Перед Вами роскошные клипы из фильма, повествующего об удивительной история любви Баджи-рао и его второй жены, принцессы Мастани... Наслаждайтесь восточным зрелищем!



Продолжительность: 00:28:56
Качество видео: BDRip 1080p http://multi-up.com/1122099
Язык: hindi
Язык субтитров: Русский, английский
Вид субтитров: отключаемые (SRT)
Разбивка по трекам: имеется
Видео: AVC/H.264, 1920х800 (2.40:1), ~11 600
Аудио 1: AC3, 6 ch, 48000Hz, 16 bits, 640 Kbps
Аудио 2: PCM, 2 ch, 48000Hz, 24 bits, 2304 Kbps
Аудио 3: DTS, 6 ch, 48000Hz, 16 bits, 1536 Kbps
General
Unique ID : 187282176854907496586387184051182662601 (0x8CE53C390C62D854955D584BB55873C9)
Complete name : Bajirao Mastani.BDRip1080p.2016.VATAKy.mkv
Format : Matroska
Format version : Version 4 / Version 2
File size : 3.24 GiB
Duration : 28mn 56s
Overall bit rate : 16.0 Mbps
Movie name : V.ATAKy 2016
Encoded date : UTC 2016-10-10 09:08:52
Writing application : mkvmerge v7.3.0 ('Nouages') 64bit built on Oct 22 2014 18:53:34
Writing library : libebml v1.3.0 + libmatroska v1.4.1

Video
ID : 1
Format : AVC
Format/Info : Advanced Video Codec
Format profile :
Format settings, CABAC : Yes
Format settings, ReFrames : 5 frames
Codec ID : V_MPEG4/ISO/AVC
Duration : 28mn 56s
Nominal bit rate : 11.6 Mbps
Width : 1 920 pixels
Height : 800 pixels
Display aspect ratio : 2.40:1
Frame rate mode : Constant
Frame rate : 24.000 fps
Color space : YUV
Chroma subsampling : 4:2:0
Bit depth : 8 bits
Scan type : Progressive
Bits/(Pixel*Frame) : 0.314
Writing library : x264 core 148 r2721M 72d53ab
Encoding settings : cabac=1 / ref=5 / deblock=1:-3:-3 / analyse=0x3:0x133 / me=tesa / subme=11 / psy=1 / psy_rd=1.05:0.10 / mixed_ref=1 / me_range=24 / chroma_me=1 / trellis=2 / 8x8dct=1 / cqm=0 / deadzone=21,11 / fast_pskip=0 / chroma_qp_offset=-3 / threads=5 / lookahead_threads=1 / sliced_threads=0 / nr=0 / decimate=1 / interlaced=0 / bluray_compat=0 / constrained_intra=0 / bframes=5 / b_pyramid=2 / b_adapt=2 / b_bias=0 / direct=3 / weightb=1 / open_gop=0 / weightp=2 / keyint=240 / keyint_min=24 / scenecut=40 / intra_refresh=0 / rc=2pass / mbtree=0 / bitrate=11557 / ratetol=1.0 / qcomp=0.70 / qpmin=3 / qpmax=69 / qpstep=4 / cplxblur=20.0 / qblur=0.5 / ip_ratio=1.40 / pb_ratio=1.30 / aq=2:1.00
Language : Hindi
Default : Yes
Forced : No

Audio #1
ID : 2
Format : AC-3
Format/Info : Audio Coding 3
Mode extension : CM (complete main)
Format settings, Endianness : Big
Codec ID : A_AC3
Duration : 28mn 56s
Bit rate mode : Constant
Bit rate : 640 Kbps
Channel(s) : 6 channels
Channel positions : Front: L C R, Side: L R, LFE
Sampling rate : 48.0 KHz
Bit depth : 16 bits
Compression mode : Lossy
Stream size : 132 MiB (4%)
Language : Hindi
Default : Yes
Forced : No

Audio #2
ID : 3
Format : PCM
Codec ID : A_PCM/INT/LIT
Duration : 28mn 56s
Bit rate mode : Constant
Channel(s) : 2 channels
Sampling rate : 48.0 KHz
Bit depth : 24 bits
Language : Hindi
Default : No
Forced : No

Audio #3
ID : 4
Format : DTS
Format/Info : Digital Theater Systems
Mode : 16
Format settings, Endianness : Big
Codec ID : A_DTS
Duration : 28mn 56s
Bit rate mode : Constant
Bit rate : 1 536 Kbps
Channel(s) : 6 channels
Channel positions : Front: L C R, Side: L R, LFE
Sampling rate : 48.0 KHz
Bit depth : 16 bits
Compression mode : Lossy
Stream size : 318 MiB (10%)
Language : Hindi
Default : No
Forced : No

Text #1
ID : 5
Format : UTF-8
Codec ID : S_TEXT/UTF8
Codec ID/Info : UTF-8 Plain Text
Language : Russian
Default : No
Forced : No

Text #2
ID : 6
Format : UTF-8
Codec ID : S_TEXT/UTF8
Codec ID/Info : UTF-8 Plain Text
Language : English
Default : No
Forced : No

Menu
00:00:00.000 : hi:00:00:00.000
00:03:40.000 : hi:00:03:40.000
00:06:10.000 : hi:00:06:10.000
00:07:49.000 : hi:00:07:49.000
00:13:28.378 : hi:00:13:28.378
00:17:09.000 : hi:00:17:09.000
00:20:03.263 : hi:00:20:03.263
00:24:05.000 : hi:00:24:05.000
00:25:15.000 : hi:00:25:15.000
1. Aayat
2. Deewani Mastani
3. Malhari
4. Mohe Rang Do Laal
5. Fitoori
6. Pinga

Скриншоты:



Время раздачи: 23:00-8:30 (до появления первых 3-5 скачавших)
 
Не забывайте говорить Спасибо. Не уходите с раздачи!   
Торрент: Зарегистрирован [10 окт 2016, 14:30] Скачать торрент
Скачать торрент
[ Размер 16.92 КБ / Просмотров 18 ]
Статус:
Проверен
 
.torrent скачан: 0 раз
Хэш: 29b08664b9f82e322a94adb29eb1c60d5ef81684
Размер: 3.24 ГБ (3 479 760 600 байт)
Стать Автором раздачи
 
 
Раздал: 100 ГБ
Скачал: 0 байт
Ратио: Seed.
Сообщения: 109913
Зарегистрирован: 09 апр 2015, 22:31


Вернуться в Музыкальные клипы (транзит)

Ресурс не предоставляет электронные версии произведений, а занимается лишь коллекционированием и каталогизацией ссылок, присылаемых и публикуемых на форуме нашими читателями. Если вы являетесь правообладателем какого-либо представленного материала и не желаете чтобы ссылка на него находилась в нашем каталоге, свяжитесь с нами и мы незамедлительно удалим её. Файлы для обмена на трекере предоставлены пользователями сайта, и администрация не несёт ответственности за их содержание. Просьба не заливать файлы, защищенные авторскими правами, а также файлы нелегального содержания!
cron