Чудовище / L’Animal (1977) HDTVRip [H.264] [MP4|1024x432]

 
 Статистика раздачи 
Размер: 1.71 ГБ   |  Зарегистрирован: 09 окт 2016, 07:34   |   .torrent скачан: 0 раз
Сидеров: 1  [ 0 байт/сек ]     Личеров: 0  [ 0 байт/сек ]  
  

Чудовище / L’Animal (1977) HDTVRip [H.264] [MP4|1024x432]

Сообщение explosiveone » 09 окт 2016, 07:34

Чудовище / L’Animal (1977) HDTVRip



Производство: Франция / Cerito Films, Les Films Christian Fechner, Canal+
Жанр: Боевик, Мелодрама, Комедия

Режиссер: Клод Зиди
Актеры: Жан-Поль Бельмондо, Рэкел Уэлч, Марио Давид, Раймон Жером, Шарль Жерар, Жюльен Гийомар, Анри Женес, Альдо Маччоне, Дани Саваль

Описание:
Каскадёр Мишель Гоше (Жан-Поль Бельмондо) не очень-то преуспел на профессиональном поприще, поэтому хватается за любую работу, чтобы свести концы с концами. Даже собственная свадьба с каскадёршей Джейн Гарднер (Рэкуэл Уэлш), которая уже давно ждала этого дня, не является для него уважительной причиной для отказа от внезапно подвернувшейся работы, и по пути в ЗАГС они заезжают на съёмочную площадку, где должны исполнить каскадёрский трюк. Джейн, не ожидавшая, что ей придётся работать в такой торжественный день, устраивает Мишелю скандал, в результате чего он теряет управление автомобилем, и оба оказываются на больничной койке со множественными травмами. Это становится для Джейн последней каплей, и она после выздоровления оставляет и свою опасную работу и своего жениха. Но, потерпев неудачу на личном фронте, Мишель получает очень выгодное предложение от итальянского режиссёра (Альдо Мацционе), приехавшего во Францию для съёмок своего нового боевика. Главную роль в фильме исполняет всемирно известный актёр, любимец миллионов женщин Бруно Феррари (Жан-Поль Бельмондо), как две капли воды похожий на Мишеля, которому предлагают дублировать его в опасных сценах...


Возраст: 12+ (зрителям, достигшим 12 лет)

Продолжительность: 01:36:28
Качество видео: HDTVRip
Перевод: Дублированный - (к/с им. Горького), Дублированный - (НТВ)
Вид субтитров: Отсутствуют
Реклама: Без рекламы

Видео: AVC/H.264 (Main@L3.1), 1024x432 (2.40:1), 2100 Кбит/сек
Аудио #1: AAC, 2 канал, 128 Кбит/сек - русский (дублированный)
Аудио #2: AC3, 2 канал, 192 Кбит/сек - русский (многоголосый закадровый)
Аудио #3: AAC, 2 канал, 128 Кбит/сек - французский
Код:
Код: Выделить всё
General
Complete name                            : C:\CREATE\264mod1\out\1\L'animal.1977.576p.HDTVRip.x264.NNMclub.mp4
Format                                   : MPEG-4
Format profile                           : Base Media / Version 2
Codec ID                                 : mp42 (mp42/isom)
File size                                : 1.71 GiB
Duration                                 : 1h 36mn
Overall bit rate mode                    : Variable
Overall bit rate                         : 2 525 Kbps
Movie name                               : L'animal
Performer                                : Claude Zidi
Director                                 : Claude Zidi
Genre                                    : Action et aventure
ContentType                              : Short Film
Description                              : Marvin est la risée de toute la ville. Cet obscur fonctionnaire qui répertorie des preuves pour la
Recorded date                            : 1977-10-05
Encoded date                             : UTC 2016-10-08 17:07:40
Tagged date                              : UTC 2016-10-08 17:23:55
Copyright                                : © 1977 Studiocanal
Cover                                    : Yes
Rating                                   : None
LongDescription                          : Marvin est la risée de toute la ville. Cet obscur fonctionnaire qui répertorie des preuves pour la police est un réel incapable : il échoue tous les ans aux épreuves sportives qui pourraient faire de lui un simple flic, il se fait battre par de jeunes enfants, frapper par des joggers, courser par le chien de son voisin... Un jour, voulant aider la police, il est victime d'un incroyable accident de voiture. Il se réveillera quelques jours plus tard, recousu par un savant-fou qui lui a greffé divers organes animaux, du chien à l'otarie. Commence alors pour Marvin une nouvelle vie, où il court plus vite qu'un cheval, possède un flair de chien et se trouve autant attiré par la jolie Rianna que par une séduisante chèvre...
AppleStoreCountry                        : France
AppleStoreCatalogID                      : 1127796060
ContentRating                            : fr-movie|Tout public|000|

Video
ID                                       : 1
Format                                   : AVC
Format/Info                              : Advanced Video Codec
Format profile                           :
Format settings, CABAC                   : No
Format settings, ReFrames                : 3 frames
Codec ID                                 : avc1
Codec ID/Info                            : Advanced Video Coding
Duration                                 : 1h 35mn
Bit rate                                 : 2 100 Kbps
Width                                    : 1 024 pixels
Height                                   : 432 pixels
Display aspect ratio                     : 2.40:1
Frame rate mode                          : Constant
Frame rate                               : 25.000 fps
Color space                              : YUV
Chroma subsampling                       : 4:2:0
Bit depth                                : 8 bits
Scan type                                : Progressive
Bits/(Pixel*Frame)                       : 0.190
Stream size                              : 1.40 GiB (82%)
Writing library                          : x264 core 148 r2721+55 e19946b t_mod_Custom [8-bit@all X86_64]
Encoding settings                        : cabac=0 / ref=3 / deblock=1:-2:-2 / analyse=0x1:0x111 / me=umh / subme=7 / psy=1 / fade_compensate=0.00 / psy_rd=1.00:0.00 / mixed_ref=1 / me_range=32 / chroma_me=1 / trellis=2 / 8x8dct=0 / cqm=0 / deadzone=21,11 / fast_pskip=0 / chroma_qp_offset=-2 / threads=12 / lookahead_threads=2 / sliced_threads=0 / nr=0 / decimate=0 / interlaced=0 / bluray_compat=0 / constrained_intra=0 / fgo=0 / bframes=3 / b_pyramid=1 / b_adapt=2 / b_bias=0 / direct=3 / weightb=1 / open_gop=0 / weightp=2 / keyint=250 / keyint_min=25 / scenecut=40 / intra_refresh=0 / rc_lookahead=50 / rc=2pass / mbtree=1 / bitrate=2100 / ratetol=1.0 / qcomp=0.70 / qpmin=0:0:0 / qpmax=69:69:69 / qpstep=4 / cplxblur=20.0 / qblur=0.5 / vbv_maxrate=14000 / vbv_bufsize=14000 / nal_hrd=none / filler=0 / ip_ratio=1.40 / aq=3:0.90 / aq-sensitivity=10.00 / aq-factor=1.00:1.00:1.00 / aq2=1:0.80 / aq2-sensitivity=13.00 / aq2-factor=1.00:1.00:1.00 / aq3=3:[0.50:0.50]:[0.50:0.50]:[0.50:0.50]:[0.50:0.50] / aq3-sensitivity=10.00 / aq3-factor=[1.00:1.00]:[1.00:1.00]:[1.00:1.00] / aq3-boundary=192:64:24
Encoded date                             : UTC 2016-10-08 17:07:40
Tagged date                              : UTC 2016-10-08 17:22:29
Color range                              : Limited
Matrix coefficients                      : BT.709

Audio #1
ID                                       : 2
Format                                   : AAC
Format/Info                              : Advanced Audio Codec
Format profile                           : LC
Codec ID                                 : 40
Duration                                 : 1h 36mn
Source duration                          : 1h 36mn
Bit rate mode                            : Variable
Bit rate                                 : 128 Kbps
Maximum bit rate                         : 131 Kbps
Channel(s)                               : 2 channels
Channel positions                        : Front: L R
Sampling rate                            : 48.0 KHz
Frame rate                               : 46.875 fps (1024 spf)
Compression mode                         : Lossy
Stream size                              : 88.3 MiB (5%)
Source stream size                       : 88.3 MiB (5%)
Language                                 : Russian
Default                                  : Yes
Alternate group                          : 1
Encoded date                             : UTC 2016-10-08 17:07:40
Tagged date                              : UTC 2016-10-08 17:22:29

Audio #2
ID                                       : 3
Format                                   : AC-3
Format/Info                              : Audio Coding 3
Mode extension                           : CM (complete main)
Format settings, Endianness              : Big
Codec ID                                 : ac-3
Duration                                 : 1h 36mn
Bit rate mode                            : Constant
Bit rate                                 : 192 Kbps
Channel(s)                               : 2 channels
Channel positions                        : Front: L R
Sampling rate                            : 48.0 KHz
Frame rate                               : 31.250 fps (1536 spf)
Bit depth                                : 16 bits
Compression mode                         : Lossy
Stream size                              : 133 MiB (8%)
Language                                 : Russian
Default                                  : No
Alternate group                          : 1
Encoded date                             : UTC 2016-10-08 17:07:40
Tagged date                              : UTC 2016-10-08 17:22:29

Audio #3
ID                                       : 4
Format                                   : AAC
Format/Info                              : Advanced Audio Codec
Format profile                           : LC
Codec ID                                 : 40
Duration                                 : 1h 36mn
Source duration                          : 1h 36mn
Bit rate mode                            : Variable
Bit rate                                 : 128 Kbps
Maximum bit rate                         : 131 Kbps
Channel(s)                               : 2 channels
Channel positions                        : Front: L R
Sampling rate                            : 48.0 KHz
Frame rate                               : 46.875 fps (1024 spf)
Compression mode                         : Lossy
Stream size                              : 88.3 MiB (5%)
Source stream size                       : 88.3 MiB (5%)
Language                                 : French
Default                                  : No
Alternate group                          : 1
Encoded date                             : UTC 2016-10-08 17:07:40
Tagged date                              : UTC 2016-10-08 17:22:29

Скриншоты:



Время раздачи: 24/7 (круглосуточно) (до появления первых 3-5 скачавших)
 
Не забывайте говорить Спасибо. Не уходите с раздачи!   
Торрент: Зарегистрирован [09 окт 2016, 07:34] Для скачивания .torrent
необходима регистрация
Или скачать с помощью
MediaGet
Статус:
Проверен
 
.torrent скачан: 0 раз
Хэш: 064f3fa1a77ed014af1a965017b262c26353e9c8
Размер: 1.71 ГБ (1 832 547 079 байт)
Стать Автором раздачи
 
 
Раздал: 100 ГБ
Скачал: 0 байт
Ратио: Seed.
Сообщения: 94059
Зарегистрирован: 09 апр 2015, 22:31


  • Похожие торренты
    Ответы
    Просмотры
    Последнее сообщение

Вернуться в Видео для мобильных устройств

Ресурс не предоставляет электронные версии произведений, а занимается лишь коллекционированием и каталогизацией ссылок, присылаемых и публикуемых на форуме нашими читателями. Если вы являетесь правообладателем какого-либо представленного материала и не желаете чтобы ссылка на него находилась в нашем каталоге, свяжитесь с нами и мы незамедлительно удалим её. Файлы для обмена на трекере предоставлены пользователями сайта, и администрация не несёт ответственности за их содержание. Просьба не заливать файлы, защищенные авторскими правами, а также файлы нелегального содержания!
cron