Черный список / The Blacklist (2016) WEB-DLRip [H.264] (сезон 4, серии 1-3 из ??) LostFilm [MP4|1280x718]

 
 Статистика раздачи 
Размер: 3.89 ГБ   |  Зарегистрирован: 09 окт 2016, 07:26   |   .torrent скачан: 0 раз
Сидеров: 1  [ 0 байт/сек ]     Личеров: 0  [ 0 байт/сек ]  
  

Черный список / The Blacklist (2016) WEB-DLRip [H.264] (сезон 4, серии 1-3 из ??) LostFilm [MP4|1280x718]

Сообщение explosiveone » 09 окт 2016, 07:26

Черный список / The Blacklist (2016) WEB-DLRip (сезон 4, серии 1-3 из ??) LostFilm
«Never trust a criminal...until you have to»

Производство: США / Davis Entertainment, Universal Television, Sony Pictures Television
Жанр: Триллер, Драма, Криминал, Детектив

Режиссер: Майкл В. Уоткинс, Стив Эделсон, Эндрю МакКарти
Актеры: Джеймс Спэйдер, Меган Бун, Диего Клаттенхофф, Гарри Дж. Ленникс, Райан Игголд, Амир Арисон, Парминдер К. Награ, Хишам Тафик, Алан Алда, Сьюзан Бломмарт и др.

Описание:
Четвертый сезон популярного американского сериала «Черный список».
Один из главных героев этого сериала — Рэймонд Реддингтон, которого многие годы пытается поймать ФБР. Раньше этот загадочный человек работал на правительство, а затем оказался на другой стороне закона.
Однажды этот самый разыскиваемы преступник приходит в Бюро, чтобы сдаться. Его условия сотрудничества — работа исключительно с Элизабет Кин. Такое требование стало первой из большой череды загадок Реддингтона.



Продолжительность: ~00:43:00 серия
Качество видео: WEB-DLRip 720p
Перевод: Многоголосый закадровый, профессиональный - LostFilm
Реклама: присутствует заставка и логотип LostFilm

Видео: AVC/H.264 (High@L3.1), 1280x718 (16:9), ~4000 Кбит/сек
Аудио: AAC, 2 канала, 246 Кбит/сек - русский (многоголосый закадровый)
Код:
Код: Выделить всё
General
Complete name               : D:\The.Blacklist.S04E01.720p.WEB.rus.LostFilm.TV.mp4
Format                      : MPEG-4
Format profile              : Base Media
Codec ID                    : isom (isom)
File size                   : 1.29 GiB
Duration                    : 43 min
Overall bit rate mode       : Variable
Overall bit rate            : 4 283 kb/s
Collection                  : Черный список
Season                      : 4
Album                       : Черный список, Сезон 4
Album/Performer             : Черный список
Part                        : 1
Part/Position               : 4
Track name                  : Эстебан
Track name/Position         : 1
Performer                   : Черный список
Genre                       : Drama
ContentType                 : TV Show
Recorded date               : 2016
Encoded date                : UTC 2016-09-23 19:45:16
Tagged date                 : UTC 2016-09-23 19:45:16
Writing application         : LostCoder
Copyright                   : LostFilm.TV (c)
Cover                       : Yes
Comment                     : Бывший агент Рэймонд "Ред" Реддингтон, некогда перешедший на другую сторону закона и много лет находившийся в розыске как один из самых опасных преступников, неожиданно сдается властям. Он предлагает ФБР помощь в поимке террористов международного уровня.
Part_ID                     : 401

Video
ID                          : 1
Format                      : AVC
Format/Info                 : Advanced Video Codec
Format profile              :
Format settings, CABAC      : No
Format settings, ReFrames   : 2 frames
Codec ID                    : avc1
Codec ID/Info               : Advanced Video Coding
Duration                    : 43 min
Bit rate                    : 4 000 kb/s
Maximum bit rate            : 13.4 Mb/s
Width                       : 1 280 pixels
Height                      : 718 pixels
Display aspect ratio        : 16:9
Frame rate mode             : Variable
Frame rate                  : 23.976 FPS
Minimum frame rate          : 23.974 FPS
Maximum frame rate          : 23.981 FPS
Color space                 : YUV
Chroma subsampling          : 4:2:0
Bit depth                   : 8 bits
Scan type                   : Progressive
Bits/(Pixel*Frame)          : 0.182
Stream size                 : 1.21 GiB (94%)
Writing library             : x264 core 112 r1834 a51816a
Encoding settings           : cabac=0 / ref=3 / deblock=1:0:0 / analyse=0x1:0x111 / me=hex / subme=7 / psy=1 / psy_rd=1.00:0.00 / mixed_ref=1 / me_range=16 / chroma_me=1 / trellis=1 / 8x8dct=0 / cqm=0 / deadzone=21,11 / fast_pskip=1 / chroma_qp_offset=-2 / threads=6 / sliced_threads=0 / nr=0 / decimate=1 / interlaced=0 / constrained_intra=0 / bframes=3 / b_pyramid=2 / b_adapt=1 / b_bias=0 / direct=1 / weightb=1 / open_gop=0 / weightp=2 / keyint=250 / keyint_min=25 / scenecut=40 / intra_refresh=0 / rc_lookahead=40 / rc=abr / mbtree=1 / bitrate=4000 / ratetol=1.0 / qcomp=0.60 / qpmin=0 / qpmax=51 / qpstep=4 / vbv_maxrate=5000 / vbv_bufsize=2000 / ip_ratio=1.40 / aq=1:1.00 / nal_hrd=none
Language                    : English
Tagged date                 : UTC 2016-09-23 19:49:44
Color range                 : Limited
Color primaries             : BT.709
Transfer characteristics    : BT.709
Matrix coefficients         : BT.709

Audio
ID                          : 2
Format                      : AAC
Format/Info                 : Advanced Audio Codec
Format profile              : LC
Codec ID                    : 40
Duration                    : 43 min
Bit rate mode               : Variable
Bit rate                    : 246 kb/s
Maximum bit rate            : 347 kb/s
Channel(s)                  : 2 channels
Channel positions           : Front: L R
Sampling rate               : 48.0 kHz
Frame rate                  : 46.875 FPS (1024 spf)
Compression mode            : Lossy
Stream size                 : 75.8 MiB (6%)
Encoded date                : UTC 2016-09-23 19:49:31
Tagged date                 : UTC 2016-09-23 19:49:44
01. Esteban / Эстебан
02. Mato / Мато
03. Miles McGrath / Майлз МакГрат
Внимание! Раздача ведётся путём добавления новых серий; при каждом добавлении создаётся новый торрент.
Чтобы начать докачку новой серии, пользователям необходимо сделать следующее:
1. Остановить скачивание;
2. Удалить старый торрент у себя из клиента (старые серии удалять не надо);
3. Скачать новый торрент и запустить его у себя в клиенте вместо старого, при этом указать клиенту путь в старую папку куда и должно происходить скачивание новых серий. Ваш клиент при этом должен произвести хеширование (проверку) старой папки и будет докачивать только те серии, которых у вас ещё нет. Старые серии при этом не удаляются, а продолжают раздаваться! Eсли вы уже удалили старые серии, то предотвратить повторную закачку старых серий можно, отжав галочку в соответствующих местах при запуске нового торрента.

Скриншоты:




Время раздачи: Круглосуточно, до первых 10-и скачавших.
 
Не забывайте говорить Спасибо. Не уходите с раздачи!   
Торрент: Зарегистрирован [09 окт 2016, 07:26] Для скачивания .torrent
необходима регистрация
Или скачать с помощью
MediaGet
Статус:
Проверен
 
.torrent скачан: 0 раз
Хэш: 25e2950c1dbcbe9e5efee892f3364ad9b0fd015e
Размер: 3.89 ГБ (4 175 171 709 байт)
Стать Автором раздачи
 
 
Раздал: 100 ГБ
Скачал: 0 байт
Ратио: Seed.
Сообщения: 94048
Зарегистрирован: 09 апр 2015, 22:31


  • Похожие торренты
    Ответы
    Просмотры
    Последнее сообщение

Вернуться в Видео для мобильных устройств

Ресурс не предоставляет электронные версии произведений, а занимается лишь коллекционированием и каталогизацией ссылок, присылаемых и публикуемых на форуме нашими читателями. Если вы являетесь правообладателем какого-либо представленного материала и не желаете чтобы ссылка на него находилась в нашем каталоге, свяжитесь с нами и мы незамедлительно удалим её. Файлы для обмена на трекере предоставлены пользователями сайта, и администрация не несёт ответственности за их содержание. Просьба не заливать файлы, защищенные авторскими правами, а также файлы нелегального содержания!
cron